Countdown (2016) 1080p Latino

1.066 vistas
1 estrella2 estrellas3 estrellas4 estrellas5 estrellas (Ninguna valoración todavía)
Cargando…

Información de Countdown (2016) 1080p Latino

Datos de la película

  • Calidad: 1080p
  • Audio: Español Latino AC3 2.0 Capturado - Ingles AC3 5.1 BLURAY
  • Subtitulos: Español Latino SRT - Ingles SRT
  • Resolución: 1920x1080p
  • Formato: MKV
  • Codec: H.264
  • Encoder: Dpelis
  • Mediainfo: Ver Ver
  • Countdown.2016.1080p.Latino.mkv
    Format                      : Matroska
    Format version              : Version 4 / Version 2
    File size                   : 2.47 GiB
    Duration                    : 1 h 30 min
    Overall bit rate            : 3 930 kb/s
    Movie name                  : DPeliculasHDMega.ORG
    Encoded date                : UTC 2017-05-29 04:31:44 / UTC 2017-05-28T18:08:58Z
    Writing application         : mkvmerge v10.0.0 ('To Drown In You') 64bit
    Writing library             : libebml v1.3.4 + libmatroska v1.4.5 / Lavf57.7.2

    Video
    ID                          : 1
    Format                      : AVC
    Format/Info                 : Advanced Video Codec
    Format profile              : [email protected]
    Format settings, CABAC      : Yes
    Format settings, ReFrames   : 4 frames
    Codec ID                    : V_MPEG4/ISO/AVC
    Duration                    : 1 h 30 min
    Bit rate                    : 3 276 kb/s
    Nominal bit rate            : 3 500 kb/s
    Width                       : 1 920 pixels
    Height                      : 1 080 pixels
    Display aspect ratio        : 16:9
    Frame rate mode             : Constant
    Frame rate                  : 23.976 (24000/1001) FPS
    Color space                 : YUV
    Chroma subsampling          : 4:2:0
    Bit depth                   : 8 bits
    Scan type                   : Progressive
    Bits/(Pixel*Frame)          : 0.066
    Stream size                 : 2.06 GiB (83%)
    Writing library             : x264 core 148 r2708 86b7198
    Encoding settings           : cabac=1 / ref=3 / deblock=1:0:0 / analyse=0x3:0x113 / me=hex / subme=7 / psy=1 / psy_rd=1.00:0.00 / mixed_ref=1 / me_range=16 / chroma_me=1 / trellis=1 / 8x8dct=1 / cqm=0 / deadzone=21,11 / fast_pskip=1 / chroma_qp_offset=-2 / threads=34 / lookahead_threads=5 / sliced_threads=0 / nr=0 / decimate=1 / interlaced=0 / bluray_compat=0 / constrained_intra=0 / bframes=3 / b_pyramid=2 / b_adapt=1 / b_bias=0 / direct=1 / weightb=1 / open_gop=0 / weightp=2 / keyint=240 / keyint_min=24 / scenecut=40 / intra_refresh=0 / rc_lookahead=40 / rc=abr / mbtree=1 / bitrate=3500 / ratetol=1.0 / qcomp=0.60 / qpmin=0 / qpmax=69 / qpstep=4 / vbv_maxrate=62500 / vbv_bufsize=78125 / nal_hrd=none / filler=0 / ip_ratio=1.40 / aq=1:1.00
    Default                     : Yes
    Forced                      : No
    Color range                 : Limited
    Color primaries             : BT.709
    Transfer characteristics    : BT.709
    Matrix coefficients         : BT.709
    Statistics Tags Issue       : mkvmerge v10.0.0 ('To Drown In You') 64bit 2017-05-29 04:31:44 / mkvmerge v10.0.0 ('To Drown In You') 64bit 2017-05-29 04:31:44 / UTC 2017-05-28T18:08:58Z
    FromStats_BitRate           : 3359554
    FromStats_Duration          : 01:30:09.404000000
    FromStats_FrameCount        : 129696
    FromStats_StreamSize        : 2271648464

    Audio #1
    ID                          : 2
    Format                      : AC-3
    Format/Info                 : Audio Coding 3
    Format settings, Endianness : Big
    Codec ID                    : A_AC3
    Duration                    : 1 h 30 min
    Bit rate mode               : Constant
    Bit rate                    : 192 kb/s
    Channel(s)                  : 2 channels
    Channel positions           : Front: L R
    Sampling rate               : 48.0 kHz
    Frame rate                  : 31.250 FPS (1536 spf)
    Bit depth                   : 16 bits
    Compression mode            : Lossy
    Delay relative to video     : 1 s 995 ms
    Stream size                 : 124 MiB (5%)
    Language                    : Spanish
    Service kind                : Complete Main
    Default                     : Yes
    Forced                      : No
    Statistics Tags Issue       : mkvmerge v10.0.0 ('To Drown In You') 64bit 2017-05-29 04:31:44 / mkvmerge v10.0.0 ('To Drown In You') 64bit 2017-05-29 04:31:44 / UTC 2017-05-28T18:08:58Z
    FromStats_BitRate           : 192000
    FromStats_Duration          : 01:26:23.488000000
    FromStats_FrameCount        : 161984
    FromStats_StreamSize        : 124403712

    Audio #2
    ID                          : 3
    Format                      : AC-3
    Format/Info                 : Audio Coding 3
    Format settings, Endianness : Big
    Codec ID                    : A_AC3
    Duration                    : 1 h 30 min
    Bit rate mode               : Constant
    Bit rate                    : 384 kb/s
    Channel(s)                  : 6 channels
    Channel positions           : Front: L C R, Side: L R, LFE
    Sampling rate               : 48.0 kHz
    Frame rate                  : 31.250 FPS (1536 spf)
    Bit depth                   : 16 bits
    Compression mode            : Lossy
    Delay relative to video     : -5 ms
    Stream size                 : 248 MiB (10%)
    Title                       : Surround
    Language                    : English
    Service kind                : Complete Main
    Default                     : No
    Forced                      : No
    Statistics Tags Issue       : mkvmerge v10.0.0 ('To Drown In You') 64bit 2017-05-29 04:31:44 / mkvmerge v10.0.0 ('To Drown In You') 64bit 2017-05-29 04:31:44 / UTC 2017-05-28T18:08:58Z
    FromStats_BitRate           : 384000
    FromStats_Duration          : 01:30:09.440000000
    FromStats_FrameCount        : 169045
    FromStats_StreamSize        : 259653120

    Text #1
    ID                          : 4
    Format                      : UTF-8
    Codec ID                    : S_TEXT/UTF8
    Codec ID/Info               : UTF-8 Plain Text
    Language                    : Spanish
    Default                     : No
    Forced                      : No
    Statistics Tags Issue       : mkvmerge v10.0.0 ('To Drown In You') 64bit 2017-05-29 04:31:44 / mkvmerge v10.0.0 ('To Drown In You') 64bit 2017-05-29 04:31:44 / UTC 2017-05-28T18:08:58Z
    FromStats_BitRate           : 57
    FromStats_Duration          : 01:22:10.509000000
    FromStats_FrameCount        : 1000
    FromStats_StreamSize        : 35546

    Text #2
    ID                          : 5
    Format                      : UTF-8
    Codec ID                    : S_TEXT/UTF8
    Codec ID/Info               : UTF-8 Plain Text
    Language                    : English
    Default                     : No
    Forced                      : No
    Statistics Tags Issue       : mkvmerge v10.0.0 ('To Drown In You') 64bit 2017-05-29 04:31:44 / mkvmerge v10.0.0 ('To Drown In You') 64bit 2017-05-29 04:31:44 / UTC 2017-05-28T18:08:58Z
    FromStats_BitRate           : 60
    FromStats_Duration          : 01:24:30.611000000
    FromStats_FrameCount        : 1178
    FromStats_StreamSize        : 38101

    Text #3
    ID                          : 6
    Format                      : UTF-8
    Codec ID                    : S_TEXT/UTF8
    Codec ID/Info               : UTF-8 Plain Text
    Language                    : Spanish
    Default                     : Yes
    Forced                      : No
    Statistics Tags Issue       : mkvmerge v10.0.0 ('To Drown In You') 64bit 2017-05-29 04:31:44 / mkvmerge v10.0.0 ('To Drown In You') 64bit 2017-05-29 04:31:44 / UTC 2017-05-28T18:08:58Z
    FromStats_BitRate           : 91
    FromStats_Duration          : 00:00:10.100000000
    FromStats_FrameCount        : 1
    FromStats_StreamSize        : 115

  • Peso: 2.47 GB

Sinopsis

Superestrellas de la WWE Dolph Ziggler y Kane conducen la acción en este thriller electrizante y palpitante. Cuando un loco secuestra a un niño y le apareja con explosivos, Ray (Ziggler), atormentado por la pérdida de su hijo pequeño, desafía a su capitán (Kane) y toma el asunto en sus propias manos. Ahora, tiene que vencer el reloj para detener un psicópata y guardar un niño inocente.

Ficha técnica

  • Titulo original: Countdown
  • Fecha de lanzamiento: 05-04-2016 (United States of America)
  • Director: John Stockwell
  • Género: Acción
  • Puntuación: 0.0 0 votos
  • Duración:
    1h 30m

Imágenes, Capturas de la película

Video trailer de la película

Enlaces de descarga

Descargar Countdown (2016) 1080p Latino
Descargar

dpeliculas

Aportes de DPeliculasHDmega la pass es:dpeliculashdmega.org Aportes de CinemaniaHD la pass es:cinemaniahdd.com
Guardado en : Acción

PelícuDelas relacionadas

  • La momia (2017) Webdl 1080p Latino

    2017
    La momia (2017) Webdl 1080p Latino

    4.0 1h 50m 2017

    Descargar La momia 2017 1080p webdl  Latino, esta pelicula estara disponible con audio latino final...

    Director: Jo Beckett

    Género: Acción

    Actores: Vera Chok

  • Batman & Harley Quinn (2017) Full Latino

    2017
    Batman & Harley Quinn (2017) Full Latino

    0.0 0h 0m 2017

    Descargar gratis Batman & Harley Quinn (2017) Full Latino. Batman y Nighwing debrán unir fuerzas...

    Director: Sam Liu

    Género: Acción

    Actores: Trevor Devall

  • Batman & Harley Quinn (2017) 1080p Latino

    2017
    Batman & Harley Quinn (2017) 1080p Latino

    0.0 1h 14m 2017

    Warner Bros. ha lanzado la portada o cubierta, así coImagen carátula de Batman and Harley Quinnmo la...

    Género: Acción

    Actores: Trevor Devall

Comentarios 1
  • edward - 29 Mayo, 2017

    muchas gracias excelente aporte me la llevo!!! 🙂