Cómo Ser Un Latin Lover (2017) 1080p Latino

4.808 vistas
1 estrella2 estrellas3 estrellas4 estrellas5 estrellas (Ninguna valoración todavía)
Cargando…

Información de Cómo Ser Un Latin Lover (2017) 1080p Latino

Datos de la película

  • Calidad: 1080p
  • Audio: Español Latino AC3 5.1 DVD - Ingles AC3 5.1 BLURAY
  • Subtitulos: Español Latino SRT - Ingles SRT
  • Resolución: 1920x800p
  • Formato: MKV
  • Codec: H.264
  • Encoder: Dpelis
  • Mediainfo: Ver Ver
  • How.to.Be.a.Latin.Lover.2017.1080p.Latino.mkv
    Format                      : Matroska
    Format version              : Version 4 / Version 2
    File size                   : 3.36 GiB
    Duration                    : 1 h 55 min
    Overall bit rate            : 4 161 kb/s
    Movie name                  : DPeliculasHDMega.ORG
    Encoded date                : UTC 2017-08-04 00:14:21 / UTC 2017-08-03T23:33:34Z
    Writing application         : mkvmerge v10.0.0 ('To Drown In You') 64bit
    Writing library             : libebml v1.3.4 + libmatroska v1.4.5 / Lavf57.7.2

    Video
    ID                          : 1
    Format                      : AVC
    Format/Info                 : Advanced Video Codec
    Format profile              : [email protected]
    Format settings, CABAC      : Yes
    Format settings, ReFrames   : 4 frames
    Codec ID                    : V_MPEG4/ISO/AVC
    Duration                    : 1 h 55 min
    Bit rate                    : 3 311 kb/s
    Nominal bit rate            : 3 500 kb/s
    Width                       : 1 920 pixels
    Height                      : 800 pixels
    Display aspect ratio        : 2.40:1
    Frame rate mode             : Constant
    Frame rate                  : 23.976 (24000/1001) FPS
    Color space                 : YUV
    Chroma subsampling          : 4:2:0
    Bit depth                   : 8 bits
    Scan type                   : Progressive
    Bits/(Pixel*Frame)          : 0.090
    Stream size                 : 2.67 GiB (80%)
    Writing library             : x264 core 148 r2708 86b7198
    Encoding settings           : cabac=1 / ref=3 / deblock=1:0:0 / analyse=0x3:0x113 / me=hex / subme=7 / psy=1 / psy_rd=1.00:0.00 / mixed_ref=1 / me_range=16 / chroma_me=1 / trellis=1 / 8x8dct=1 / cqm=0 / deadzone=21,11 / fast_pskip=1 / chroma_qp_offset=-2 / threads=25 / lookahead_threads=4 / sliced_threads=0 / nr=0 / decimate=1 / interlaced=0 / bluray_compat=0 / constrained_intra=0 / bframes=3 / b_pyramid=2 / b_adapt=1 / b_bias=0 / direct=1 / weightb=1 / open_gop=0 / weightp=2 / keyint=240 / keyint_min=24 / scenecut=40 / intra_refresh=0 / rc_lookahead=40 / rc=abr / mbtree=1 / bitrate=3500 / ratetol=1.0 / qcomp=0.60 / qpmin=0 / qpmax=69 / qpstep=4 / vbv_maxrate=62500 / vbv_bufsize=78125 / nal_hrd=none / filler=0 / ip_ratio=1.40 / aq=1:1.00
    Default                     : Yes
    Forced                      : No
    Color range                 : Limited
    Color primaries             : BT.709
    Transfer characteristics    : BT.709
    Matrix coefficients         : BT.709
    Statistics Tags Issue       : mkvmerge v10.0.0 ('To Drown In You') 64bit 2017-08-04 00:14:21 / mkvmerge v10.0.0 ('To Drown In You') 64bit 2017-08-04 00:14:21 / UTC 2017-08-03T23:33:34Z
    FromStats_BitRate           : 3391100
    FromStats_Duration          : 01:55:38.974000000
    FromStats_FrameCount        : 166369
    FromStats_StreamSize        : 2941345145

    Audio #1
    ID                          : 2
    Format                      : AC-3
    Format/Info                 : Audio Coding 3
    Format settings, Endianness : Big
    Codec ID                    : A_AC3
    Duration                    : 1 h 55 min
    Bit rate mode               : Constant
    Bit rate                    : 384 kb/s
    Channel(s)                  : 6 channels
    Channel positions           : Front: L C R, Side: L R, LFE
    Sampling rate               : 48.0 kHz
    Frame rate                  : 31.250 FPS (1536 spf)
    Bit depth                   : 16 bits
    Compression mode            : Lossy
    Delay relative to video     : -5 ms
    Stream size                 : 318 MiB (9%)
    Language                    : Spanish
    Service kind                : Complete Main
    Default                     : Yes
    Forced                      : No
    Statistics Tags Issue       : mkvmerge v10.0.0 ('To Drown In You') 64bit 2017-08-04 00:14:21 / mkvmerge v10.0.0 ('To Drown In You') 64bit 2017-08-04 00:14:21 / UTC 2017-08-03T23:33:34Z
    FromStats_BitRate           : 384000
    FromStats_Duration          : 01:55:38.944000000
    FromStats_FrameCount        : 216842
    FromStats_StreamSize        : 333069312

    Audio #2
    ID                          : 3
    Format                      : AC-3
    Format/Info                 : Audio Coding 3
    Format settings, Endianness : Big
    Codec ID                    : A_AC3
    Duration                    : 1 h 55 min
    Bit rate mode               : Constant
    Bit rate                    : 384 kb/s
    Channel(s)                  : 6 channels
    Channel positions           : Front: L C R, Side: L R, LFE
    Sampling rate               : 48.0 kHz
    Frame rate                  : 31.250 FPS (1536 spf)
    Bit depth                   : 16 bits
    Compression mode            : Lossy
    Delay relative to video     : -5 ms
    Stream size                 : 318 MiB (9%)
    Title                       : Surround
    Language                    : English
    Service kind                : Complete Main
    Default                     : No
    Forced                      : No
    Statistics Tags Issue       : mkvmerge v10.0.0 ('To Drown In You') 64bit 2017-08-04 00:14:21 / mkvmerge v10.0.0 ('To Drown In You') 64bit 2017-08-04 00:14:21 / UTC 2017-08-03T23:33:34Z
    FromStats_BitRate           : 384000
    FromStats_Duration          : 01:55:38.912000000
    FromStats_FrameCount        : 216841
    FromStats_StreamSize        : 333067776

    Text #1
    ID                          : 4
    Format                      : UTF-8
    Codec ID                    : S_TEXT/UTF8
    Codec ID/Info               : UTF-8 Plain Text
    Language                    : Spanish
    Default                     : No
    Forced                      : No
    Statistics Tags Issue       : mkvmerge v10.0.0 ('To Drown In You') 64bit 2017-08-04 00:14:21 / mkvmerge v10.0.0 ('To Drown In You') 64bit 2017-08-04 00:14:21 / UTC 2017-08-03T23:33:34Z
    FromStats_BitRate           : 60
    FromStats_Duration          : 01:49:04.347000000
    FromStats_FrameCount        : 1531
    FromStats_StreamSize        : 49121

    Text #2
    ID                          : 5
    Format                      : UTF-8
    Codec ID                    : S_TEXT/UTF8
    Codec ID/Info               : UTF-8 Plain Text
    Title                       : FORZADOS
    Language                    : Spanish
    Default                     : Yes
    Forced                      : No
    Statistics Tags Issue       : mkvmerge v10.0.0 ('To Drown In You') 64bit 2017-08-04 00:14:21 / mkvmerge v10.0.0 ('To Drown In You') 64bit 2017-08-04 00:14:21 / UTC 2017-08-03T23:33:34Z
    FromStats_BitRate           : 25
    FromStats_Duration          : 00:00:51.236000000
    FromStats_FrameCount        : 6
    FromStats_StreamSize        : 164

    Text #3
    ID                          : 6
    Format                      : UTF-8
    Codec ID                    : S_TEXT/UTF8
    Codec ID/Info               : UTF-8 Plain Text
    Language                    : English
    Default                     : No
    Forced                      : No
    Statistics Tags Issue       : mkvmerge v10.0.0 ('To Drown In You') 64bit 2017-08-04 00:14:21 / mkvmerge v10.0.0 ('To Drown In You') 64bit 2017-08-04 00:14:21 / UTC 2017-08-03T23:33:34Z
    FromStats_BitRate           : 65
    FromStats_Duration          : 01:49:03.903000000
    FromStats_FrameCount        : 1820
    FromStats_StreamSize        : 53941

    Menu
    00:00:00.000                : :00:00:00.000
    00:05:06.848                : :00:05:06.848
    00:13:39.319                : :00:13:39.318
    00:22:03.280                : :00:22:03.280
    00:29:32.437                : :00:29:32.437
    00:34:26.815                : :00:34:26.815
    00:40:39.187                : :00:40:39.187
    00:46:52.893                : :00:46:52.893
    00:53:28.706                : :00:53:28.705
    00:59:35.113                : :00:59:35.113
    01:06:40.288                : :01:06:40.288
    01:17:52.376                : :01:17:52.376
    01:27:52.100                : :01:27:52.100
    01:33:25.058                : :01:33:25.016
    01:38:34.200                : :01:38:34.200
    01:43:46.345                : :01:43:46.345

  • Peso: 3.36 GB

Sinopsis

Descargar How to Be a Latin Lover hd latino, tambien conocida Como ser un latin lover Máximo, un gigoló especializado en la seducción de mujeres ancianas ricas, se casa con una mujer que le dobla en edad. Veinticinco años después, harto y aburrido de despertar junto a su esposa de 80 años, recibe la sorpresa de su vida cuando ella termina abandonándolo. Forzado a salir de su mansión y buscando desesperadamente dónde quedarse, deberá mudarse con su distante hermana Sara y su adorable hijo nerd Hugo, en su pequeño departamento.

Ficha técnica

  • Titulo original: How to Be a Latin Lover
  • Fecha de lanzamiento: 28-04-2017 (United States of America)
  • Director: Ken Marino
  • Género: Comedia
  • Puntuación: 0.0 0 votos
  • Duración:
    1h 55m

Imágenes, Capturas de la película

Video trailer de la película

Enlaces de descarga

Descargar Cómo Ser Un Latin Lover (2017) 1080p Latino
Descargar

dpeliculas

Aportes de DPeliculasHDmega la pass es:dpeliculashdmega.org Aportes de CinemaniaHD la pass es:cinemaniahdd.com
Guardado en : Comedia

PelícuDelas relacionadas

  • Ahora me ves 2 (2016) 2160p 4K UHD HDR Latino-Ingles

    2016
    Ahora me ves 2 (2016) 2160p 4K UHD HDR Latino-Ingles

    0.0 1h 55m 2016

    Descargar gratis Ahora me ves 2 (2016) 2160p 4K UHD HDR Latino-Ingles. Un año dspués de despistar al...

    Director: Jon M. Chu

    Género: Acción

    Actores: Zoey Callandria Jones

  • The Meyerowitz Stories (2017) 1080p Latino

    2017
    The Meyerowitz Stories (2017) 1080p Latino

    0.0 1 h 52 min 2017

    Los tres hijos, ya adultos, de un arisco artista neoyorquino se enfrentan a la difícil relación que...

    Director: Noah Baumbach

    Género: Comedia

    Actores: Victor Cruz

  • Batman vs. Two-Face (2017) Full 1080p Latino

    2017
    Batman vs. Two-Face (2017) Full 1080p Latino

    0.0 1 h 12 min 2017

    En la Penitenciaría de Gotham, en presencia de Batman, Robin y el Fiscal de Distrito Harvey Dent, el...

    Director: Rick Morales

    Género: Acción

    Actores: William Shatner

  • Emoji: La película (2017) Full 1080p Latino

    2017
    Emoji: La película (2017) Full 1080p Latino

    5.0 1 h 26 min 2017

    Dentro de tu teléfono móvil existe todo un mundo secreto nunca antes visto. Oculta tras la aplicación...

    Director: Anthony Leondis

    Género: Animación

    Actores: William Townsend

Comentarios 7