Ven y Encuentrame (2016) 1080p Latino

1.141 vistas
1 estrella2 estrellas3 estrellas4 estrellas5 estrellas (Ninguna valoración todavía)
Cargando…

Información de Ven y Encuentrame (2016) 1080p Latino

Datos de la película

  • Calidad: 1080p
  • Audio: Español Latino AC3 5.1 DVD - Ingles AC3 5.1 BLURAY
  • Subtitulos: Español Latino SRT
  • Resolución: 1920X804P
  • Formato: MKV
  • Codec: H.264
  • Encoder: Dpelis
  • Mediainfo: Ver Ver
  • Come.and.find.me.2016.1080p.LATINO.mkv
    Format                      : Matroska
    Format version              : Version 4 / Version 2
    File size                   : 3.24 GiB
    Duration                    : 1 h 52 min
    Overall bit rate            : 4 134 kb/s
    Movie name                  : DPeliculasHDMega.ORG
    Encoded date                : UTC 2017-07-07 00:00:54 / UTC 2017-07-06T14:07:26Z
    Writing application         : mkvmerge v10.0.0 ('To Drown In You') 64bit
    Writing library             : libebml v1.3.4 + libmatroska v1.4.5 / Lavf57.7.2

    Video
    ID                          : 1
    Format                      : AVC
    Format/Info                 : Advanced Video Codec
    Format profile              : [email protected]
    Format settings, CABAC      : Yes
    Format settings, ReFrames   : 4 frames
    Codec ID                    : V_MPEG4/ISO/AVC
    Duration                    : 1 h 52 min
    Bit rate                    : 3 284 kb/s
    Nominal bit rate            : 3 500 kb/s
    Width                       : 1 920 pixels
    Height                      : 804 pixels
    Display aspect ratio        : 2.40:1
    Frame rate mode             : Constant
    Frame rate                  : 23.976 (24000/1001) FPS
    Color space                 : YUV
    Chroma subsampling          : 4:2:0
    Bit depth                   : 8 bits
    Scan type                   : Progressive
    Bits/(Pixel*Frame)          : 0.089
    Stream size                 : 2.57 GiB (79%)
    Writing library             : x264 core 148 r2708 86b7198
    Encoding settings           : cabac=1 / ref=3 / deblock=1:0:0 / analyse=0x3:0x113 / me=hex / subme=7 / psy=1 / psy_rd=1.00:0.00 / mixed_ref=1 / me_range=16 / chroma_me=1 / trellis=1 / 8x8dct=1 / cqm=0 / deadzone=21,11 / fast_pskip=1 / chroma_qp_offset=-2 / threads=12 / lookahead_threads=2 / sliced_threads=0 / nr=0 / decimate=1 / interlaced=0 / bluray_compat=0 / constrained_intra=0 / bframes=3 / b_pyramid=2 / b_adapt=1 / b_bias=0 / direct=1 / weightb=1 / open_gop=0 / weightp=2 / keyint=240 / keyint_min=24 / scenecut=40 / intra_refresh=0 / rc_lookahead=40 / rc=abr / mbtree=1 / bitrate=3500 / ratetol=1.0 / qcomp=0.60 / qpmin=0 / qpmax=69 / qpstep=4 / vbv_maxrate=62500 / vbv_bufsize=78125 / nal_hrd=none / filler=0 / ip_ratio=1.40 / aq=1:1.00
    Default                     : Yes
    Forced                      : No
    Color range                 : Limited
    Color primaries             : BT.709
    Transfer characteristics    : BT.709
    Matrix coefficients         : BT.709
    Statistics Tags Issue       : mkvmerge v10.0.0 ('To Drown In You') 64bit 2017-07-07 00:00:54 / mkvmerge v10.0.0 ('To Drown In You') 64bit 2017-07-07 00:00:54 / UTC 2017-07-06T14:07:26Z
    FromStats_BitRate           : 3365056
    FromStats_Duration          : 01:52:10.975000000
    FromStats_FrameCount        : 161382
    FromStats_StreamSize        : 2831264228

    Audio #1
    ID                          : 2
    Format                      : AC-3
    Format/Info                 : Audio Coding 3
    Format settings, Endianness : Big
    Codec ID                    : A_AC3
    Duration                    : 1 h 52 min
    Bit rate mode               : Constant
    Bit rate                    : 384 kb/s
    Channel(s)                  : 6 channels
    Channel positions           : Front: L C R, Side: L R, LFE
    Sampling rate               : 48.0 kHz
    Frame rate                  : 31.250 FPS (1536 spf)
    Bit depth                   : 16 bits
    Compression mode            : Lossy
    Delay relative to video     : 12 s 795 ms
    Stream size                 : 308 MiB (9%)
    Language                    : Spanish
    Service kind                : Complete Main
    Default                     : Yes
    Forced                      : No
    Statistics Tags Issue       : mkvmerge v10.0.0 ('To Drown In You') 64bit 2017-07-07 00:00:54 / mkvmerge v10.0.0 ('To Drown In You') 64bit 2017-07-07 00:00:54 / UTC 2017-07-06T14:07:26Z
    FromStats_BitRate           : 384000
    FromStats_Duration          : 01:51:54.368000000
    FromStats_FrameCount        : 209824
    FromStats_StreamSize        : 322289664

    Audio #2
    ID                          : 3
    Format                      : AC-3
    Format/Info                 : Audio Coding 3
    Format settings, Endianness : Big
    Codec ID                    : A_AC3
    Duration                    : 1 h 52 min
    Bit rate mode               : Constant
    Bit rate                    : 384 kb/s
    Channel(s)                  : 6 channels
    Channel positions           : Front: L C R, Side: L R, LFE
    Sampling rate               : 48.0 kHz
    Frame rate                  : 31.250 FPS (1536 spf)
    Bit depth                   : 16 bits
    Compression mode            : Lossy
    Delay relative to video     : -5 ms
    Stream size                 : 308 MiB (9%)
    Title                       : Surround
    Language                    : English
    Service kind                : Complete Main
    Default                     : No
    Forced                      : No
    Statistics Tags Issue       : mkvmerge v10.0.0 ('To Drown In You') 64bit 2017-07-07 00:00:54 / mkvmerge v10.0.0 ('To Drown In You') 64bit 2017-07-07 00:00:54 / UTC 2017-07-06T14:07:26Z
    FromStats_BitRate           : 384000
    FromStats_Duration          : 01:52:10.752000000
    FromStats_FrameCount        : 210336
    FromStats_StreamSize        : 323076096

    Text
    ID                          : 4
    Format                      : UTF-8
    Codec ID                    : S_TEXT/UTF8
    Codec ID/Info               : UTF-8 Plain Text
    Language                    : Spanish
    Default                     : Yes
    Forced                      : No
    Statistics Tags Issue       : mkvmerge v10.0.0 ('To Drown In You') 64bit 2017-07-07 00:00:54 / mkvmerge v10.0.0 ('To Drown In You') 64bit 2017-07-07 00:00:54 / UTC 2017-07-06T14:07:26Z
    FromStats_BitRate           : 34
    FromStats_Duration          : 01:43:57.263000000
    FromStats_FrameCount        : 984
    FromStats_StreamSize        : 26663

    Menu
    00:00:00.000                : :00:00:00.000
    00:07:24.527                : :00:07:24.527
    00:14:30.787                : :00:14:30.787
    00:22:22.424                : :00:22:22.341
    00:29:29.268                : :00:29:29.267
    00:38:30.433                : :00:38:30.433
    00:44:36.090                : :00:44:36.090
    00:50:50.714                : :00:50:50.714
    00:57:14.181                : :00:57:14.181
    01:07:29.921                : :01:07:29.921
    01:15:23.561                : :01:15:23.561
    01:19:43.988                : :01:19:43.988
    01:27:45.427                : :01:27:45.427
    01:32:12.027                : :01:32:12.026
    01:41:35.464                : :01:41:35.464
    01:47:23.520                : :01:47:23.437

  • Peso: 3.24 GB

Sinopsis

David (Aaron Paul) es un joven que busca encontrar a su novia desaparecida tras descubrir que ella no es la mujer que decía ser y que le ha mentido durante todo el tiempo. El protagonista tratará de destapar toda la verdad mientras que el tiempo corre en su contra.

Zack Whedon (Deadwood, Ángel) dirige esta película británica que cuenta con un reparto formado por Aaron Paul (Breaking Bad, Need for Speed), Annabelle Wallis (Annabelle, Red de mentiras), Garret Dillahunt (12 años de esclavitud, Deadwood) y Zachary Knighton (Finales felices, Carretera al infierno), entre otros.

Ficha técnica

  • Titulo original: Come and Find Me
  • Fecha de lanzamiento: 11-11-2016 (United States of America)
  • Director: Zack Whedon
  • Género: Drama, Suspense
  • Puntuación: 0.0 0 votos
  • Duración:
    1h 52m

Imágenes, Capturas de la película

Video trailer de la película

Enlaces de descarga

Descargar Ven y Encuentrame (2016) 1080p Latino
Descargar

dpeliculas

Aportes de DPeliculasHDmega la pass es:dpeliculashdmega.org Aportes de CinemaniaHD la pass es:cinemaniahdd.com
Guardado en : Drama , Suspense

PelícuDelas relacionadas

  • Ahora me ves 2 (2016) 2160p 4K UHD HDR Latino-Ingles

    2016
    Ahora me ves 2 (2016) 2160p 4K UHD HDR Latino-Ingles

    0.0 1h 55m 2016

    Descargar gratis Ahora me ves 2 (2016) 2160p 4K UHD HDR Latino-Ingles. Un año dspués de despistar al...

    Director: Jon M. Chu

    Género: Acción

    Actores: Zoey Callandria Jones

  • La guerra del planeta de los simios (2017) Full 1080p Latino

    2017
    La guerra del planeta de los simios (2017) Full 1080p Latino

    5.0 2 h 20 min 2017

    César (Andy Serkis) jura que no comenzó la guerra. Pero él y su nación de simios genéticamente evolucionados...

    Director: Matt Reeves

    Género: Ciencia ficción

    Actores: Woody Harrelson

  • Annabelle: Creation (2017) Full 1080p Latino

    2017
    Annabelle: Creation (2017) Full 1080p Latino

    4.5 1 h 49 min 2017

    Década de los 50. Algunos años después de que Samuel Mullins (Anthony LaPaglia), un fabricante de...

    Director: Jan McWilliams

    Género: Estrenos

    Actores: Ward Horton

  • Llega de noche (2017) Full 1080p Latino

    2017
    Llega de noche (2017) Full 1080p Latino

    1.0 1 h 31 min 2017

    Paul es un padre de familia (Joel Edgerton) que vive junto a su Sarah (Carmen Ejogo) y su hijo adolescente...

    Director: Trey Edward Shults

    Género: Misterio

    Actores: Riley Keough

Comentarios 2
  • Alex - 07 julio, 2017

    No puedes otra vez link de MEGA agregar por favor.
    El GoogleDrive no anda bien con J-Downloader.

    • dpelis

      Administrador
      - 07 julio, 2017

      reportar en el paste,