Colossal (2016) 1080p Latino

2.526 vistas
1 estrella2 estrellas3 estrellas4 estrellas5 estrellas (2 votos, promedio: 3,50 de 5)
Cargando…

Información de Colossal (2016) 1080p Latino

Datos de la película

  • Calidad: 1080p
  • Audio: Español Latino AC3 2.0 Capturado - Ingles AC3 5.1 BLURAY
  • Subtitulos: Español Latino SRT - Ingles SRT
  • Resolución: 1920x802p
  • Formato: MKV
  • Codec: H.264
  • Encoder: Dpelis
  • Mediainfo: Ver Ver
  • Colossal (2016) 1080p Latino.mkv
    Format                      : Matroska
    Format version              : Version 4 / Version 2
    File size                   : 3.03 GiB
    Duration                    : 1 h 49 min
    Overall bit rate            : 3 970 kb/s
    Movie name                  : DPeliculasHDMega.ORG
    Encoded date                : UTC 2017-09-02 23:37:26 / UTC 2017-09-02T21:50:41Z
    Writing application         : mkvmerge v10.0.0 ('To Drown In You') 64bit
    Writing library             : libebml v1.3.4 + libmatroska v1.4.5 / Lavf57.7.2

    Video
    ID                          : 1
    Format                      : AVC
    Format/Info                 : Advanced Video Codec
    Format profile              : [email protected]
    Format settings, CABAC      : Yes
    Format settings, ReFrames   : 4 frames
    Codec ID                    : V_MPEG4/ISO/AVC
    Duration                    : 1 h 49 min
    Bit rate                    : 3 315 kb/s
    Nominal bit rate            : 3 500 kb/s
    Width                       : 1 920 pixels
    Height                      : 802 pixels
    Display aspect ratio        : 2.40:1
    Frame rate mode             : Constant
    Frame rate                  : 23.976 (24000/1001) FPS
    Color space                 : YUV
    Chroma subsampling          : 4:2:0
    Bit depth                   : 8 bits
    Scan type                   : Progressive
    Bits/(Pixel*Frame)          : 0.090
    Stream size                 : 2.53 GiB (84%)
    Writing library             : x264 core 148 r2708 86b7198
    Encoding settings           : cabac=1 / ref=3 / deblock=1:0:0 / analyse=0x3:0x113 / me=hex / subme=7 / psy=1 / psy_rd=1.00:0.00 / mixed_ref=1 / me_range=16 / chroma_me=1 / trellis=1 / 8x8dct=1 / cqm=0 / deadzone=21,11 / fast_pskip=1 / chroma_qp_offset=-2 / threads=12 / lookahead_threads=2 / sliced_threads=0 / nr=0 / decimate=1 / interlaced=0 / bluray_compat=0 / constrained_intra=0 / bframes=3 / b_pyramid=2 / b_adapt=1 / b_bias=0 / direct=1 / weightb=1 / open_gop=0 / weightp=2 / keyint=240 / keyint_min=24 / scenecut=40 / intra_refresh=0 / rc_lookahead=40 / rc=abr / mbtree=1 / bitrate=3500 / ratetol=1.0 / qcomp=0.60 / qpmin=0 / qpmax=69 / qpstep=4 / vbv_maxrate=62500 / vbv_bufsize=78125 / nal_hrd=none / filler=0 / ip_ratio=1.40 / aq=1:1.00
    Default                     : Yes
    Forced                      : No
    Color range                 : Limited
    Color primaries             : BT.709
    Transfer characteristics    : BT.709
    Matrix coefficients         : BT.709
    Statistics Tags Issue       : mkvmerge v10.0.0 ('To Drown In You') 64bit 2017-09-02 23:37:26 / mkvmerge v10.0.0 ('To Drown In You') 64bit 2017-09-02 23:37:26 / UTC 2017-09-02T21:50:41Z
    FromStats_BitRate           : 3391864
    FromStats_Duration          : 01:49:23.641000000
    FromStats_FrameCount        : 157370
    FromStats_StreamSize        : 2782872339

    Audio #1
    ID                          : 2
    Format                      : AC-3
    Format/Info                 : Audio Coding 3
    Format settings, Endianness : Big
    Codec ID                    : A_AC3
    Duration                    : 1 h 49 min
    Bit rate mode               : Constant
    Bit rate                    : 192 kb/s
    Channel(s)                  : 2 channels
    Channel positions           : Front: L R
    Sampling rate               : 48.0 kHz
    Frame rate                  : 31.250 FPS (1536 spf)
    Bit depth                   : 16 bits
    Compression mode            : Lossy
    Delay relative to video     : -5 ms
    Stream size                 : 150 MiB (5%)
    Language                    : Spanish
    Service kind                : Complete Main
    Default                     : Yes
    Forced                      : No
    Statistics Tags Issue       : mkvmerge v10.0.0 ('To Drown In You') 64bit 2017-09-02 23:37:26 / mkvmerge v10.0.0 ('To Drown In You') 64bit 2017-09-02 23:37:26 / UTC 2017-09-02T21:50:41Z
    FromStats_BitRate           : 192000
    FromStats_Duration          : 01:49:23.264000000
    FromStats_FrameCount        : 205102
    FromStats_StreamSize        : 157518336

    Audio #2
    ID                          : 3
    Format                      : AC-3
    Format/Info                 : Audio Coding 3
    Format settings, Endianness : Big
    Codec ID                    : A_AC3
    Duration                    : 1 h 49 min
    Bit rate mode               : Constant
    Bit rate                    : 384 kb/s
    Channel(s)                  : 6 channels
    Channel positions           : Front: L C R, Side: L R, LFE
    Sampling rate               : 48.0 kHz
    Frame rate                  : 31.250 FPS (1536 spf)
    Bit depth                   : 16 bits
    Compression mode            : Lossy
    Delay relative to video     : -5 ms
    Stream size                 : 300 MiB (10%)
    Title                       : Surround
    Language                    : English
    Service kind                : Complete Main
    Default                     : No
    Forced                      : No
    Statistics Tags Issue       : mkvmerge v10.0.0 ('To Drown In You') 64bit 2017-09-02 23:37:26 / mkvmerge v10.0.0 ('To Drown In You') 64bit 2017-09-02 23:37:26 / UTC 2017-09-02T21:50:41Z
    FromStats_BitRate           : 384000
    FromStats_Duration          : 01:49:23.680000000
    FromStats_FrameCount        : 205115
    FromStats_StreamSize        : 315056640

    Text #1
    ID                          : 4
    Format                      : UTF-8
    Codec ID                    : S_TEXT/UTF8
    Codec ID/Info               : UTF-8 Plain Text
    Language                    : Spanish
    Default                     : No
    Forced                      : No
    Statistics Tags Issue       : mkvmerge v10.0.0 ('To Drown In You') 64bit 2017-09-02 23:37:26 / mkvmerge v10.0.0 ('To Drown In You') 64bit 2017-09-02 23:37:26 / UTC 2017-09-02T21:50:41Z
    FromStats_BitRate           : 54
    FromStats_Duration          : 01:44:23.011000000
    FromStats_FrameCount        : 1352
    FromStats_StreamSize        : 42416

    Text #2
    ID                          : 5
    Format                      : UTF-8
    Codec ID                    : S_TEXT/UTF8
    Codec ID/Info               : UTF-8 Plain Text
    Language                    : English
    Default                     : No
    Forced                      : No
    Statistics Tags Issue       : mkvmerge v10.0.0 ('To Drown In You') 64bit 2017-09-02 23:37:26 / mkvmerge v10.0.0 ('To Drown In You') 64bit 2017-09-02 23:37:26 / UTC 2017-09-02T21:50:41Z
    FromStats_BitRate           : 56
    FromStats_Duration          : 01:42:54.595000000
    FromStats_FrameCount        : 1399
    FromStats_StreamSize        : 43872

    Text #3
    ID                          : 6
    Format                      : UTF-8
    Codec ID                    : S_TEXT/UTF8
    Codec ID/Info               : UTF-8 Plain Text
    Language                    : Spanish
    Default                     : Yes
    Forced                      : No
    Statistics Tags Issue       : mkvmerge v10.0.0 ('To Drown In You') 64bit 2017-09-02 23:37:26 / mkvmerge v10.0.0 ('To Drown In You') 64bit 2017-09-02 23:37:26 / UTC 2017-09-02T21:50:41Z
    FromStats_BitRate           : 28
    FromStats_Duration          : 00:00:20.100000000
    FromStats_FrameCount        : 1
    FromStats_StreamSize        : 71

    Menu
    00:00:00.000                : :00:00:00.000
    00:06:17.210                : :00:06:17.210
    00:11:20.054                : :00:11:20.054
    00:16:47.465                : :00:16:47.465
    00:21:57.149                : :00:21:57.149
    00:28:13.066                : :00:28:13.066
    00:32:32.617                : :00:32:32.617
    00:37:34.377                : :00:37:34.377
    00:43:04.832                : :00:43:04.832
    00:46:26.117                : :00:46:26.117
    00:52:03.829                : :00:52:03.829
    00:57:49.883                : :00:57:49.883
    01:03:57.125                : :01:03:57.125
    01:10:59.547                : :01:10:59.547
    01:14:39.433                : :01:14:39.433
    01:21:51.949                : :01:21:51.949
    01:26:09.039                : :01:26:09.039
    01:31:45.750                : :01:31:45.750
    01:36:10.348                : :01:36:10.348
    01:44:23.632                : :01:44:23.507

  • Peso: 3.03 GB

Sinopsis

Gloria decide dejar Nueva York y regresar a su ciudad natal tras haber perdido su trabajo y su novio. Pero, cuando en las noticias informan de que un monstruo gigantesco está destruyendo la ciudad de Seúl, Gloria se va dando cuenta poco a poco de que, a través de su mente, está conectada de forma extraña con estos acontecimientos. Para evitar que la destrucción vaya a más tendrá que averiguar el papel de su insignificante existencia en un evento colosal que podría cambiar el destino del mundo.

Ficha técnica

Imágenes, Capturas de la película

Video trailer de la película

Enlaces de descarga

Descargar Colossal (2016) 1080p Latino
Descargar

dpeliculas

Aportes de DPeliculasHDmega la pass es:dpeliculashdmega.org Aportes de CinemaniaHD la pass es:cinemaniahdd.com

PelícuDelas relacionadas

Comentarios 4
  • Jonna - 15 septiembre, 2017

    Esperándola en plateada

    • dpelis

      Administrador
      - 15 septiembre, 2017

      hasta que salga buen audio, por el momento solo el capturado. si vez por la red de dvd, no es correcto, es el capturado que anda en la red

  • rodigolofonte - 05 septiembre, 2017

    gracias por la peli, recien me di cuenta q el audio era capturado, hay algunos milisegundos de silencio y una escena donde el audio se mezcla con una escena pasada, espero salga un audio de mejor calidad.

  • Gusord - 04 septiembre, 2017

    Gracias por subirlo a Google Drice