Advertise here

Click (2006) Full 1080p Latino

848 vistas
1 estrella2 estrellas3 estrellas4 estrellas5 estrellas (1 votos, promedio: 4,00 de 5)
Cargando…

Información de Click (2006) Full 1080p Latino

Datos de la película

  • Calidad: Full 1080p
  • Audio: Español Latino AC3 5.1 BLURAY - Ingles AC3 5.1 BLURAY
  • Subtitulos: Español Latino PGS - Ingles PGS
  • Resolución: 1920X1080
  • Formato: MKV
  • Codec: H.264
  • Encoder: Dpelis
  • Mediainfo: Clic para Mostrar Datos Ver
  • Format                                   : Matroska
    Format version                           : Version 4 / Version 2
    File size                                : 9.91 GiB
    Duration                                 : 1 h 47 min
    Overall bit rate                         : 13.2 Mb/s
    Movie name                               : dpeliculashdmega.org
    Encoded date                             : UTC 2017-11-05 00:38:34 / UTC 2017-11-04T17:59:52Z
    Writing application                      : mkvmerge v15.0.0 ('Duel with the Devil') 64-bit
    Writing library                          : libebml v1.3.5 + libmatroska v1.4.5 / Lavf57.7.2

    Video
    ID                                       : 1
    Format                                   : AVC
    Format/Info                              : Advanced Video Codec
    Format profile                           : [email protected]
    Format settings                          : CABAC / 4 Ref Frames
    Format settings, CABAC                   : Yes
    Format settings, RefFrames               : 4 frames
    Codec ID                                 : V_MPEG4/ISO/AVC
    Duration                                 : 1 h 47 min
    Bit rate                                 : 11.7 Mb/s
    Width                                    : 1 920 pixels
    Height                                   : 1 080 pixels
    Display aspect ratio                     : 16:9
    Frame rate mode                          : Constant
    Frame rate                               : 23.976 (24000/1001) FPS
    Color space                              : YUV
    Chroma subsampling                       : 4:2:0
    Bit depth                                : 8 bits
    Scan type                                : Progressive
    Bits/(Pixel*Frame)                       : 0.234
    Stream size                              : 8.75 GiB (88%)
    Title                                    : Click (2006) Full 1080p Latino
    Writing library                          : x264 core 148 r2708 86b7198
    Encoding settings                        : cabac=1 / ref=4 / deblock=1:0:0 / analyse=0x3:0x133 / me=esa / subme=10 / psy=1 / psy_rd=1.00:0.00 / mixed_ref=1 / me_range=24 / chroma_me=1 / trellis=2 / 8x8dct=1 / cqm=0 / deadzone=21,11 / fast_pskip=1 / chroma_qp_offset=-2 / threads=34 / lookahead_threads=5 / sliced_threads=0 / nr=0 / decimate=1 / interlaced=0 / bluray_compat=0 / constrained_intra=0 / bframes=8 / b_pyramid=2 / b_adapt=2 / b_bias=0 / direct=3 / weightb=1 / open_gop=0 / weightp=2 / keyint=240 / keyint_min=24 / scenecut=40 / intra_refresh=0 / rc_lookahead=60 / rc=crf / mbtree=1 / crf=20.0 / qcomp=0.60 / qpmin=0 / qpmax=69 / qpstep=4 / vbv_maxrate=62500 / vbv_bufsize=78125 / crf_max=0.0 / nal_hrd=none / filler=0 / ip_ratio=1.40 / aq=1:1.00
    Language                                 : English
    Default                                  : Yes
    Forced                                   : No
    Color range                              : Limited
    Color primaries                          : BT.709
    Transfer characteristics                 : BT.709
    Matrix coefficients                      : BT.709
    Statistics Tags Issue                    : mkvmerge v15.0.0 ('Duel with the Devil') 64-bit 2017-11-05 00:38:34 / mkvmerge v15.0.0 ('Duel with the Devil') 64-bit 2017-11-05 00:38:34 / UTC 2017-11-04T17:59:52Z
    FromStats_BitRate                        : 11871657
    FromStats_Duration                       : 01:47:31.445000000
    FromStats_FrameCount                     : 154680
    FromStats_StreamSize                     : 9573668497

    Audio #1
    ID                                       : 2
    Format                                   : AC-3
    Format/Info                              : Audio Coding 3
    Format settings, Endianness              : Big
    Codec ID                                 : A_AC3
    Duration                                 : 1 h 47 min
    Bit rate mode                            : Constant
    Bit rate                                 : 640 kb/s
    Channel(s)                               : 6 channels
    Channel positions                        : Front: L C R, Side: L R, LFE
    Sampling rate                            : 48.0 kHz
    Frame rate                               : 31.250 FPS (1536 SPF)
    Bit depth                                : 16 bits
    Compression mode                         : Lossy
    Delay relative to video                  : 41 ms
    Stream size                              : 492 MiB (5%)
    Title                                    : Latino-AC3
    Language                                 : Spanish
    Service kind                             : Complete Main
    Default                                  : Yes
    Forced                                   : No
    Statistics Tags Issue                    : mkvmerge v15.0.0 ('Duel with the Devil') 64-bit 2017-11-05 00:38:34 / mkvmerge v15.0.0 ('Duel with the Devil') 64-bit 2017-11-05 00:38:34 / UTC 2017-11-04T17:59:52Z
    FromStats_BitRate                        : 640000
    FromStats_Duration                       : 01:47:31.456000000
    FromStats_FrameCount                     : 201608
    FromStats_StreamSize                     : 516116480

    Audio #2
    ID                                       : 3
    Format                                   : AC-3
    Format/Info                              : Audio Coding 3
    Format settings, Endianness              : Big
    Codec ID                                 : A_AC3
    Duration                                 : 1 h 47 min
    Bit rate mode                            : Constant
    Bit rate                                 : 640 kb/s
    Channel(s)                               : 6 channels
    Channel positions                        : Front: L C R, Side: L R, LFE
    Sampling rate                            : 48.0 kHz
    Frame rate                               : 31.250 FPS (1536 SPF)
    Bit depth                                : 16 bits
    Compression mode                         : Lossy
    Delay relative to video                  : 41 ms
    Stream size                              : 492 MiB (5%)
    Title                                    : Ingles-AC3
    Language                                 : English
    Service kind                             : Complete Main
    Default                                  : No
    Forced                                   : No
    Statistics Tags Issue                    : mkvmerge v15.0.0 ('Duel with the Devil') 64-bit 2017-11-05 00:38:34 / mkvmerge v15.0.0 ('Duel with the Devil') 64-bit 2017-11-05 00:38:34 / UTC 2017-11-04T17:59:52Z
    FromStats_BitRate                        : 640000
    FromStats_Duration                       : 01:47:31.456000000
    FromStats_FrameCount                     : 201608
    FromStats_StreamSize                     : 516116480

    Text #1
    ID                                       : 4
    Format                                   : PGS
    Muxing mode                              : zlib
    Codec ID                                 : S_HDMV/PGS
    Codec ID/Info                            : Picture based subtitle format used on BDs/HD-DVDs
    Title                                    : PGS
    Language                                 : English
    Default                                  : No
    Forced                                   : No
    Statistics Tags Issue                    : mkvmerge v15.0.0 ('Duel with the Devil') 64-bit 2017-11-05 00:38:34 / mkvmerge v15.0.0 ('Duel with the Devil') 64-bit 2017-11-05 00:38:34 / UTC 2017-11-04T17:59:52Z
    FromStats_BitRate                        : 74144
    FromStats_Duration                       : 01:39:28.629000000
    FromStats_FrameCount                     : 3044
    FromStats_StreamSize                     : 55317740

    Text #2
    ID                                       : 5
    Format                                   : PGS
    Muxing mode                              : zlib
    Codec ID                                 : S_HDMV/PGS
    Codec ID/Info                            : Picture based subtitle format used on BDs/HD-DVDs
    Title                                    : PGS
    Language                                 : Spanish
    Default                                  : No
    Forced                                   : No
    Statistics Tags Issue                    : mkvmerge v15.0.0 ('Duel with the Devil') 64-bit 2017-11-05 00:38:34 / mkvmerge v15.0.0 ('Duel with the Devil') 64-bit 2017-11-05 00:38:34 / UTC 2017-11-04T17:59:52Z
    FromStats_BitRate                        : 72127
    FromStats_Duration                       : 01:39:57.158000000
    FromStats_FrameCount                     : 3112
    FromStats_StreamSize                     : 54070267

    Menu
    00:00:00.167                             : :Chapter 1
    00:07:33.119                             : :Chapter 2
    00:11:46.122                             : :Chapter 3
    00:18:26.314                             : :Chapter 4
    00:22:08.869                             : :Chapter 5
    00:31:16.124                             : :Chapter 6
    00:37:47.474                             : :Chapter 7
    00:42:38.931                             : :Chapter 8
    00:49:20.749                             : :Chapter 9
    00:54:21.300                             : :Chapter 10
    00:59:31.359                             : :Chapter 11
    01:06:17.390                             : :Chapter 12
    01:14:12.698                             : :Chapter 13
    01:19:39.024                             : :Chapter 14
    01:29:18.895                             : :Chapter 15
    01:35:02.739                             : :Chapter 16

  • Peso: 9.91 GiB

Sinopsis

Michael Newman (Adam Sandler), un arquitecto muy ocupado que trata de progresar y tener tiempo para su mujer Donna (Kate Beckinsale) y sus dos hijos, compra un mando a distancia que parece que no sólo le permite controlar su televisión y su estéreo, sino, virtualmente, toda su vida. Rápidamente, Michael se vuelve adicto a este torrente de poder…

Ficha técnica

Video trailer de la película

Enlaces de descarga

Descargar Click (2006) Full 1080p Latino
Descargar

dpeliculas

Aportes de DPeliculasHDmega la pass es:dpeliculashdmega.org Aportes de CinemaniaHD la pass es:cinemaniahdd.com

Películas relacionadas

  • Crash Pad (2017) WEB-DL 1080p Latino

    2017
    Crash Pad (2017) WEB-DL 1080p Latino

    0.0 1 h 33 min 2017

    Un romántico sin esperanza que cree que ha encontrado el amor verdadero con una mujer mayor, solo para...

    Director: Kevin Tent

    Género: Comedia

    Actores: Vladimir Ruzich

  • Toy Story 3 (2010) Full 1080p Latino

    2010
    Toy Story 3 (2010) Full 1080p Latino

    0.0 1 h 43 min 2010

    Sabiendo que su dueño Andy, que ya no es un niño, se prepara para ir a la universidad, el vaquero Woody,...

    Director: Mark Sanford

    Género: Animación

    Actores: Whoopi Goldberg

  • Toy Story (1995) Full 1080p Latino

    1995
    Toy Story (1995) Full 1080p Latino

    0.0 1 h 21 min 1995

    Los juguetes de Andy, un niño de 6 años, temen que haya llegado su hora y que un nuevo regalo de cumpleaños...

    Director: Roman Figun

    Género: Animación

    Actores: Wallace Shawn

Comentarios 1
  • Jairo - 08 noviembre, 2017

    Gracias, Gracias! por haber tomado en cuenta mi sugerencia! gracias. La mejor pagina de descarga gratuita!