Cincuenta sombras más oscuras (2017) UNRATED Full 1080p Latino

4.648 vistas
1 estrella2 estrellas3 estrellas4 estrellas5 estrellas (6 votos, promedio: 2,00 de 5)
Cargando…

Información de Cincuenta sombras más oscuras (2017) UNRATED Full 1080p Latino

Cincuenta sombras más oscuras 1080p latino megahd

Datos de la película

  • Calidad: Full 1080p
  • Audio: Español Latino DTS 5.1 BLURAY - Ingles DTS 5.1 BLURAY
  • Subtitulos: Español Latino PGS - Ingles PGS
  • Resolución: 1920x1080p
  • Formato: MKV
  • Codec: H.264
  • Encoder: Dpelis
  • Mediainfo: Ver Ver
  • Fifty Shades Darker 2017 UNRATED HD FULL 1080p Latino.mkv
    Format                      : Matroska
    Format version              : Version 4 / Version 2
    File size                   : 5.04 GiB
    Duration                    : 2 h 11 min
    Overall bit rate            : 5 493 kb/s
    Movie name                  : DPeliculasHDMega.ORG
    Encoded date                : UTC 2017-04-29 00:08:16 / UTC 2017-04-28T02:10:25Z
    Writing application         : mkvmerge v10.0.0 ('To Drown In You') 64bit
    Writing library             : libebml v1.3.4 + libmatroska v1.4.5 / Lavf57.7.2

    Video
    ID                          : 1
    Format                      : AVC
    Format/Info                 : Advanced Video Codec
    Format profile              : [email protected]
    Format settings, CABAC      : Yes
    Format settings, ReFrames   : 4 frames
    Codec ID                    : V_MPEG4/ISO/AVC
    Duration                    : 2 h 11 min
    Bit rate                    : 3 106 kb/s
    Width                       : 1 920 pixels
    Height                      : 1 080 pixels
    Display aspect ratio        : 16:9
    Frame rate mode             : Constant
    Frame rate                  : 23.976 (24000/1001) FPS
    Color space                 : YUV
    Chroma subsampling          : 4:2:0
    Bit depth                   : 8 bits
    Scan type                   : Progressive
    Bits/(Pixel*Frame)          : 0.062
    Stream size                 : 2.85 GiB (57%)
    Writing library             : x264 core 148 r2708 86b7198
    Encoding settings           : cabac=1 / ref=4 / deblock=1:0:0 / analyse=0x3:0x133 / me=esa / subme=10 / psy=1 / psy_rd=1.00:0.00 / mixed_ref=1 / me_range=24 / chroma_me=1 / trellis=2 / 8x8dct=1 / cqm=0 / deadzone=21,11 / fast_pskip=1 / chroma_qp_offset=-2 / threads=12 / lookahead_threads=2 / sliced_threads=0 / nr=0 / decimate=1 / interlaced=0 / bluray_compat=0 / constrained_intra=0 / bframes=8 / b_pyramid=2 / b_adapt=2 / b_bias=0 / direct=3 / weightb=1 / open_gop=0 / weightp=2 / keyint=240 / keyint_min=24 / scenecut=40 / intra_refresh=0 / rc_lookahead=60 / rc=crf / mbtree=1 / crf=20.0 / qcomp=0.60 / qpmin=0 / qpmax=69 / qpstep=4 / vbv_maxrate=62500 / vbv_bufsize=78125 / crf_max=0.0 / nal_hrd=none / filler=0 / ip_ratio=1.40 / aq=1:1.00
    Default                     : Yes
    Forced                      : No
    Color range                 : Limited
    Color primaries             : BT.709
    Transfer characteristics    : BT.709
    Matrix coefficients         : BT.709
    Statistics Tags Issue       : mkvmerge v10.0.0 ('To Drown In You') 64bit 2017-04-29 00:08:16 / mkvmerge v10.0.0 ('To Drown In You') 64bit 2017-04-29 00:08:16 / UTC 2017-04-28T02:10:25Z
    FromStats_BitRate           : 3194359
    FromStats_Duration          : 02:11:28.840000000
    FromStats_FrameCount        : 189143
    FromStats_StreamSize        : 3149973560

    Audio #1
    ID                          : 2
    Format                      : DTS
    Format/Info                 : Digital Theater Systems
    Mode                        : 16
    Format settings, Endianness : Big
    Codec ID                    : A_DTS
    Duration                    : 2 h 11 min
    Bit rate mode               : Constant
    Bit rate                    : 768 kb/s
    Channel(s)                  : 6 channels
    Channel positions           : Front: L C R, Side: L R, LFE
    Sampling rate               : 48.0 kHz
    Frame rate                  : 93.750 FPS (512 spf)
    Bit depth                   : 24 bits
    Compression mode            : Lossy
    Stream size                 : 722 MiB (14%)
    Title                       : Surround
    Language                    : Spanish
    Default                     : Yes
    Forced                      : No
    Statistics Tags Issue       : mkvmerge v10.0.0 ('To Drown In You') 64bit 2017-04-29 00:08:16 / mkvmerge v10.0.0 ('To Drown In You') 64bit 2017-04-29 00:08:16 / UTC 2017-04-28T02:10:25Z
    FromStats_BitRate           : 767999
    FromStats_Duration          : 02:11:28.875000000
    FromStats_FrameCount        : 739582
    FromStats_StreamSize        : 757331968

    Audio #2
    ID                          : 3
    Format                      : DTS
    Format/Info                 : Digital Theater Systems
    Mode                        : 16
    Format settings, Endianness : Big
    Codec ID                    : A_DTS
    Duration                    : 2 h 11 min
    Bit rate mode               : Constant
    Bit rate                    : 1 509 kb/s
    Channel(s)                  : 6 channels
    Channel positions           : Front: L C R, Side: L R, LFE
    Sampling rate               : 48.0 kHz
    Frame rate                  : 93.750 FPS (512 spf)
    Bit depth                   : 24 bits
    Compression mode            : Lossy
    Stream size                 : 1.39 GiB (27%)
    Title                       : Surround
    Language                    : English
    Default                     : No
    Forced                      : No
    Statistics Tags Issue       : mkvmerge v10.0.0 ('To Drown In You') 64bit 2017-04-29 00:08:16 / mkvmerge v10.0.0 ('To Drown In You') 64bit 2017-04-29 00:08:16 / UTC 2017-04-28T02:10:25Z
    FromStats_BitRate           : 1508999
    FromStats_Duration          : 02:11:28.875000000
    FromStats_FrameCount        : 739582
    FromStats_StreamSize        : 1488038984

    Text #1
    ID                          : 4
    Format                      : PGS
    Muxing mode                 : zlib
    Codec ID                    : S_HDMV/PGS
    Codec ID/Info               : Picture based subtitle format used on BDs/HD-DVDs
    Language                    : Spanish
    Default                     : No
    Forced                      : No
    Statistics Tags Issue       : mkvmerge v10.0.0 ('To Drown In You') 64bit 2017-04-29 00:08:16 / mkvmerge v10.0.0 ('To Drown In You') 64bit 2017-04-29 00:08:16 / UTC 2017-04-28T02:10:25Z
    FromStats_BitRate           : 7994
    FromStats_Duration          : 02:11:01.425000000
    FromStats_FrameCount        : 2928
    FromStats_StreamSize        : 7856433

    Text #2
    ID                          : 5
    Format                      : PGS
    Muxing mode                 : zlib
    Codec ID                    : S_HDMV/PGS
    Codec ID/Info               : Picture based subtitle format used on BDs/HD-DVDs
    Title                       : Forzados
    Language                    : Spanish
    Default                     : No
    Forced                      : No
    Statistics Tags Issue       : mkvmerge v10.0.0 ('To Drown In You') 64bit 2017-04-29 00:08:16 / mkvmerge v10.0.0 ('To Drown In You') 64bit 2017-04-29 00:08:16 / UTC 2017-04-28T02:10:25Z
    FromStats_BitRate           : 73
    FromStats_Duration          : 02:09:42.430000000
    FromStats_FrameCount        : 62
    FromStats_StreamSize        : 71856

    Text #3
    ID                          : 6
    Format                      : PGS
    Muxing mode                 : zlib
    Codec ID                    : S_HDMV/PGS
    Codec ID/Info               : Picture based subtitle format used on BDs/HD-DVDs
    Language                    : English
    Default                     : No
    Forced                      : No
    Statistics Tags Issue       : mkvmerge v10.0.0 ('To Drown In You') 64bit 2017-04-29 00:08:16 / mkvmerge v10.0.0 ('To Drown In You') 64bit 2017-04-29 00:08:16 / UTC 2017-04-28T02:10:25Z
    FromStats_BitRate           : 10148
    FromStats_Duration          : 02:08:43.788000000
    FromStats_FrameCount        : 3342
    FromStats_StreamSize        : 9797746

    Menu
    00:00:00.000                : :Chapter 1
    00:05:46.680                : :Chapter 2
    00:13:13.418                : :Chapter 3
    00:18:16.429                : :Chapter 4
    00:24:44.191                : :Chapter 5
    00:29:18.382                : :Chapter 6
    00:37:23.533                : :Chapter 7
    00:44:30.334                : :Chapter 8
    00:50:21.268                : :Chapter 9
    00:57:56.473                : :Chapter 10
    01:06:00.832                : :Chapter 11
    01:11:53.726                : :Chapter 12
    01:24:48.041                : :Chapter 13
    01:30:38.683                : :Chapter 14
    01:35:39.609                : :Chapter 15
    01:40:59.095                : :Chapter 16
    01:48:52.401                : :Chapter 17
    01:55:56.491                : :Chapter 18
    02:01:37.415                : :Chapter 19
    02:05:30.815                : :Chapter 20

  • Peso: 5.04 GB

Sinopsis

Cincuenta sombras más oscuras 1080p Latino también conocida como Fifty Shades Darker es una película  romántica y erótica dirigida por James Foley, secuela de Cincuenta sombras de Grey. Fue estrenada en los Estados Unidos el 10 de febrero de 2017, y recibió críticas negativas de los especialistas en cine, principalmente dirigidas a su guion, actuación y narrativa.3 Está basada en la novela superventas del mismo nombre, publicada en 2012 por la autora británica E. L. James, que describe la relación entre una recién graduada de la universidad, Anastasia Steele, y un joven magnate de negocios, Christian Grey. Se destaca por sus escenas explícitamente, con elementos de las prácticas que involucran: disciplina, dominación, masoquismo

 

Cuando Christian Gray, que está lesionado, trata de convencer a los reticentes Ana Steele vez más convertirse en una parte de su vida, esto requiere un nuevo acuerdo antes de aceptar. Pero cuando la pareja comienza a tener más confianza y una cierta estabilidad, se deterioró Cristiano pasado figuras decidieron dejar cortas sus esperanzas de un futuro juntos, que parecen.

Ficha técnica

Imágenes, Capturas de la película

Video trailer de la película

Enlaces de descarga

Descargar Cincuenta sombras más oscuras (2017) UNRATED Full 1080p Latino
Descargar

dpeliculas

Aportes de DPeliculasHDmega la pass es:dpeliculashdmega.org Aportes de CinemaniaHD la pass es:cinemaniahdd.com

PelícuDelas relacionadas

  • Dragon Ball Super (2015) Full 1080p Latino

    2015
    Dragon Ball Super (2015) Full 1080p Latino

    5.0 0h 24m 2015

    Si eres un seguidor de la serie Dragon ball super latino, entonces ahora puedes disfrutar de esta maravillosa...

    Director: Akira Toriyama

    Género: Anime

    Actores: Naoki Tatsuta

  • Snowden (2016) 1080p Latino

    2016
    Snowden (2016) 1080p Latino

    0.0 2h 15m 2016

    Basada en el libro "The Snowden files. The inside story of the world's most wanted man" escrito por Luke...

    Director: Oliver Stone

    Género: Drama

    Actores: Zachary Quinto

  • Una noche fuera de control (2017) 1080p Latino

    2017
    Una noche fuera de control (2017) 1080p Latino

    0.0 1h 40m 2017

    Descargar Rough Night 1080p latino, tambien conocida como Una noche fuera de control  Latino, Pelicula...

    Director: Lucia Aniello

    Género: Comedia

    Actores: Zoë Kravitz

  • Baywatch (2017) UNRATED Full 1080p Latino

    2017
    Baywatch (2017) UNRATED Full 1080p Latino

    3.0 2h 1m 2017

    'Los vigilantes de la playa' narra la historia del esforzado socorrista Mitch Buchannon (Johnson) y su...

    Director: Seth Gordon

    Género: Acción

    Actores: Zachary Vazquez

Comentarios 6
  • LEON - 22 Junio, 2017

    como las veo en linea sin descargar

    • dpelis

      Administrador
      - 22 Junio, 2017

      dispnible solo online. saludos

  • Ruben Perez - 20 Mayo, 2017

    La pelicula de 50 sombras mas oscuras caratula gris no se puede bajar. Al direccionar a los links publicos da este mensaje: Error: El id “472” no existe

    • dpelis

      Administrador
      - 20 Mayo, 2017

      gracias por avisar ya fue reparado

  • levi - 08 Mayo, 2017

    buenas tardes hay un vacio de 59:38 al 61:23 minutos,utilice otro reproductor se congela la imagen muchas gracias sigan adelante.como se hace para ser vip

    • dpelis

      Administrador
      - 08 Mayo, 2017

      muy raro estimado. que reproductor esta usando?? lo del vip funciona haciendo una donacion por meses. medio paypal o wester union. Saludos