Advertise here

Cincuenta sombras más oscuras (2017) Unrated 1080p Latino

3.461 vistas
1 estrella2 estrellas3 estrellas4 estrellas5 estrellas (3 votos, promedio: 4,67 de 5)
Cargando…

Información de Cincuenta sombras más oscuras (2017) Unrated 1080p Latino

Fifty Shades Darker

Datos de la película

  • Calidad: 1080p
  • Audio: Español Latino AC3 5.1 BLURAY - Ingles AC3 5.1 BLURAY
  • Subtitulos: Español Latino SRT - Ingles SRT
  • Resolución: 1920x800p
  • Formato: MKV
  • Codec: H.264
  • Encoder: Dpelis
  • Mediainfo: Clic para Mostrar Datos Ver
  • \Fifty Shades Darker 2017 1080p Latino.mkv
    Format                      : Matroska
    Format version              : Version 4 / Version 2
    File size                   : 3.89 GiB
    Duration                    : 2 h 11 min
    Overall bit rate            : 4 233 kb/s
    Movie name                  : DPeliculasHDMega.ORG
    Encoded date                : UTC 2017-04-28 01:33:08
    Writing application         : mkvmerge v10.0.0 ('To Drown In You') 64bit
    Writing library             : libebml v1.3.4 + libmatroska v1.4.5

    Video
    ID                          : 1
    Format                      : AVC
    Format/Info                 : Advanced Video Codec
    Format profile              : [email protected]
    Format settings, CABAC      : Yes
    Format settings, ReFrames   : 4 frames
    Codec ID                    : V_MPEG4/ISO/AVC
    Duration                    : 2 h 11 min
    Bit rate                    : 3 500 kb/s
    Width                       : 1 920 pixels
    Height                      : 800 pixels
    Display aspect ratio        : 2.40:1
    Frame rate mode             : Constant
    Frame rate                  : 23.976 (24000/1001) FPS
    Color space                 : YUV
    Chroma subsampling          : 4:2:0
    Bit depth                   : 8 bits
    Scan type                   : Progressive
    Bits/(Pixel*Frame)          : 0.095
    Stream size                 : 3.18 GiB (82%)
    Writing library             : x264 core 148 r2708 86b7198
    Encoding settings           : cabac=1 / ref=3 / deblock=1:0:0 / analyse=0x3:0x113 / me=hex / subme=7 / psy=1 / psy_rd=1.00:0.00 / mixed_ref=1 / me_range=16 / chroma_me=1 / trellis=1 / 8x8dct=1 / cqm=0 / deadzone=21,11 / fast_pskip=1 / chroma_qp_offset=-2 / threads=12 / lookahead_threads=2 / sliced_threads=0 / nr=0 / decimate=1 / interlaced=0 / bluray_compat=0 / constrained_intra=0 / bframes=3 / b_pyramid=2 / b_adapt=1 / b_bias=0 / direct=1 / weightb=1 / open_gop=0 / weightp=2 / keyint=240 / keyint_min=24 / scenecut=40 / intra_refresh=0 / rc_lookahead=40 / rc=abr / mbtree=1 / bitrate=3500 / ratetol=1.0 / qcomp=0.60 / qpmin=0 / qpmax=69 / qpstep=4 / vbv_maxrate=62500 / vbv_bufsize=78125 / nal_hrd=none / filler=0 / ip_ratio=1.40 / aq=1:1.00
    Default                     : Yes
    Forced                      : No
    Color range                 : Limited
    Color primaries             : BT.709
    Transfer characteristics    : BT.709
    Matrix coefficients         : BT.709

    Audio #1
    ID                          : 2
    Format                      : AC-3
    Format/Info                 : Audio Coding 3
    Format settings, Endianness : Big
    Codec ID                    : A_AC3
    Duration                    : 2 h 11 min
    Bit rate mode               : Constant
    Bit rate                    : 384 kb/s
    Channel(s)                  : 6 channels
    Channel positions           : Front: L C R, Side: L R, LFE
    Sampling rate               : 48.0 kHz
    Frame rate                  : 31.250 FPS (1536 spf)
    Bit depth                   : 16 bits
    Compression mode            : Lossy
    Delay relative to video     : -5 ms
    Stream size                 : 361 MiB (9%)
    Language                    : Spanish
    Service kind                : Complete Main
    Default                     : Yes
    Forced                      : No

    Audio #2
    ID                          : 3
    Format                      : AC-3
    Format/Info                 : Audio Coding 3
    Format settings, Endianness : Big
    Codec ID                    : A_AC3
    Duration                    : 2 h 11 min
    Bit rate mode               : Constant
    Bit rate                    : 384 kb/s
    Channel(s)                  : 6 channels
    Channel positions           : Front: L C R, Side: L R, LFE
    Sampling rate               : 48.0 kHz
    Frame rate                  : 31.250 FPS (1536 spf)
    Bit depth                   : 16 bits
    Compression mode            : Lossy
    Delay relative to video     : -5 ms
    Stream size                 : 361 MiB (9%)
    Language                    : English
    Service kind                : Complete Main
    Default                     : No
    Forced                      : No

    Text #1
    ID                          : 4
    Format                      : UTF-8
    Codec ID                    : S_TEXT/UTF8
    Codec ID/Info               : UTF-8 Plain Text
    Duration                    : 2 h 8 min
    Bit rate                    : 40 b/s
    Count of elements           : 1437
    Stream size                 : 38.3 KiB (0%)
    Language                    : Spanish
    Default                     : No
    Forced                      : No

    Text #2
    ID                          : 5
    Format                      : UTF-8
    Codec ID                    : S_TEXT/UTF8
    Codec ID/Info               : UTF-8 Plain Text
    Duration                    : 1 h 38 min
    Bit rate                    : 0 b/s
    Count of elements           : 6
    Stream size                 : 204 Bytes (0%)
    Title                       : Forzados
    Language                    : Spanish
    Default                     : Yes
    Forced                      : No

    Text #3
    ID                          : 6
    Format                      : UTF-8
    Codec ID                    : S_TEXT/UTF8
    Codec ID/Info               : UTF-8 Plain Text
    Duration                    : 2 h 10 min
    Bit rate                    : 110 b/s
    Count of elements           : 2387
    Stream size                 : 106 KiB (0%)
    Language                    : English
    Default                     : No
    Forced                      : No

    Menu
    00:00:00.000                : en:Chapter 1
    00:05:46.680                : en:Chapter 2
    00:13:13.418                : en:Chapter 3
    00:18:16.429                : en:Chapter 4
    00:24:44.191                : en:Chapter 5
    00:29:18.382                : en:Chapter 6
    00:37:23.533                : en:Chapter 7
    00:44:30.334                : en:Chapter 8
    00:50:21.268                : en:Chapter 9
    00:57:56.473                : en:Chapter 10
    01:06:00.832                : en:Chapter 11
    01:11:53.726                : en:Chapter 12
    01:24:48.041                : en:Chapter 13
    01:30:38.683                : en:Chapter 14
    01:35:39.609                : en:Chapter 15
    01:40:59.095                : en:Chapter 16
    01:48:52.401                : en:Chapter 17
    01:55:56.491                : en:Chapter 18
    02:01:37.415                : en:Chapter 19
    02:05:30.815                : en:Chapter 20

  • Peso: 3.89 GB

Sinopsis

Descargar Cincuenta sombras mas oscuras 1080p Latino, Anastasia Steele Si mentira y destrucción abrumados por el poder comienza un misterioso Generar Christian Gray. El magnetismo inicial se convierte en un juego peligroso dominación sexual que Anastasia, si encuentra su falta de experiencia de Totally pérdida. Él decidió dejar su foco lejos de máxima y comenzar una nueva vida es posible. Decisivo empezar de cero y tomar un trabajo en una editorial de Seatle, donde algunos ‘de tiro puede crear POCO sus sueños y seguir con vida. Pero él será capaz de escapar de su influencia y la memoria del Sur de contacto? Anastasia va a volver a caer en las garras grises atractivas, las coordenadas del nuevo de las prácticas sexuales más peligrosos. Pero sólo luchar contra sus sentimientos, UP Lo que vamos a hacer frente a la oscuridad frente a su hombre, peligro de muerte al sur juntos. Nuevos peligros y miedos que si alguna vez se pensó para cumplir con los nuevos desafíos juntos.

Ficha técnica

Video trailer de la película

Enlaces de descarga

Descargar Cincuenta sombras más oscuras (2017) Unrated 1080p Latino
Descargar
Descargar Cincuenta sombras más oscuras (2017) Unrated 1080p Latino

dpeliculas

Aportes de DPeliculasHDmega la pass es:dpeliculashdmega.org Aportes de CinemaniaHD la pass es:cinemaniahdd.com
Guardado en : Drama , Romance

Películas relacionadas

  • Pilgrimage (2017) WEB-DL 1080p Latino

    2017
    Pilgrimage (2017) WEB-DL 1080p Latino

    0.0 1 h 36 min 2017

    “Roma ha hablado”, con esa frase unos monjes cristianos deben comenzar la peregrinación hacia Roma...

    Director: Sophie Higel

    Género: Acción

    Actores: Tristan McConnell

  • The Bourne Ultimátum (2007) Full 1080p Latino

    2007
    The Bourne Ultimátum (2007) Full 1080p Latino

    5.0 1 h 55 min 2007

    Jason Bourne sigue investigando quién es y qué hay realmente detrás del programa secreto de la CIA...

    Director: Sue Mahoney

    Género: Acción

    Actores: William H. Burns

  • The Bourne Supremacy (2004) Full 1080p Latino

    2004
    The Bourne Supremacy (2004) Full 1080p Latino

    5.0 1h 48m 2004

    El pasado de Jason Bourne vuelve por él. En la segunda entrega de la saga de tres películas basadas...

    Director: Thorne Mutert

    Género: Acción

    Actores: Yevgeni Sitokhin

  • La ola (Bølgen) (2015) Full 1080p Latino

    2015
    La ola (Bølgen) (2015) Full 1080p Latino

    0.0 1 h 45 min 2015

    Nadie estaba realmente preparado para la caída del paso de montaña de Åkneset sobre el estrecho fiordo...

    Director: Roar Uthaug

    Género: Acción

    Actores: Tyra Holmen

Comentarios 10
  • JUANCHO - 01 mayo, 2017

    CONFIRMADO, POSEE CINAVIA EN EL IDIOMA ESPAÑOL AL MENOS. NO ME FIJO AUN EL INGLES

    • dpelis

      Administrador
      - 02 mayo, 2017

      si tiene cinavia amigo. saludos

  • Milick - 25 abril, 2017

    no funciona. ni la supuesta solucion funciona.

    • dpelis

      Administrador
      - 25 abril, 2017

      no entiendo su mensaje

      • Harry - 26 abril, 2017

        Los enlaces de Mega estan mal, no son correctos! :/