Chocolat (2016) 1080p Latino

827 vistas
1 estrella2 estrellas3 estrellas4 estrellas5 estrellas (1 votos, promedio: 5,00 de 5)
Cargando…

Información de Chocolat (2016) 1080p Latino

Datos de la película

  • Calidad: 1080p
  • Audio: Español Latino AC3 2.0 Capturado - Frances AC3 5.1 BLURAY
  • Subtitulos: Español Latino SRT - Ingles SRT
  • Resolución: 1920x1036p
  • Formato: MKV
  • Codec: H.264
  • Encoder: Dpelis
  • Mediainfo: Ver Ver
  • Chocolat.2016.1080p.Latino.Ingles.Dpelis.mkv
    Format                      : Matroska
    Format version              : Version 4 / Version 2
    File size                   : 3.31 GiB
    Duration                    : 1 h 59 min
    Overall bit rate            : 3 979 kb/s
    Movie name                  : DPeliculasHDMega.ORG
    Encoded date                : UTC 2017-05-21 00:29:43 / UTC 2017-05-20T18:58:46Z
    Writing application         : mkvmerge v10.0.0 ('To Drown In You') 64bit
    Writing library             : libebml v1.3.4 + libmatroska v1.4.5 / Lavf57.7.2

    Video
    ID                          : 1
    Format                      : AVC
    Format/Info                 : Advanced Video Codec
    Format profile              : [email protected]
    Format settings, CABAC      : Yes
    Format settings, ReFrames   : 4 frames
    Codec ID                    : V_MPEG4/ISO/AVC
    Duration                    : 1 h 59 min
    Bit rate                    : 3 292 kb/s
    Nominal bit rate            : 3 500 kb/s
    Width                       : 1 920 pixels
    Height                      : 1 036 pixels
    Display aspect ratio        : 1.85:1
    Frame rate mode             : Constant
    Frame rate                  : 24.000 FPS
    Color space                 : YUV
    Chroma subsampling          : 4:2:0
    Bit depth                   : 8 bits
    Scan type                   : Progressive
    Bits/(Pixel*Frame)          : 0.069
    Stream size                 : 2.74 GiB (83%)
    Writing library             : x264 core 148 r2708 86b7198
    Encoding settings           : cabac=1 / ref=3 / deblock=1:0:0 / analyse=0x3:0x113 / me=hex / subme=7 / psy=1 / psy_rd=1.00:0.00 / mixed_ref=1 / me_range=16 / chroma_me=1 / trellis=1 / 8x8dct=1 / cqm=0 / deadzone=21,11 / fast_pskip=1 / chroma_qp_offset=-2 / threads=12 / lookahead_threads=2 / sliced_threads=0 / nr=0 / decimate=1 / interlaced=0 / bluray_compat=0 / constrained_intra=0 / bframes=3 / b_pyramid=2 / b_adapt=1 / b_bias=0 / direct=1 / weightb=1 / open_gop=0 / weightp=2 / keyint=240 / keyint_min=24 / scenecut=40 / intra_refresh=0 / rc_lookahead=40 / rc=abr / mbtree=1 / bitrate=3500 / ratetol=1.0 / qcomp=0.60 / qpmin=0 / qpmax=69 / qpstep=4 / vbv_maxrate=62500 / vbv_bufsize=78125 / nal_hrd=none / filler=0 / ip_ratio=1.40 / aq=1:1.00
    Default                     : Yes
    Forced                      : No
    Color range                 : Limited
    Color primaries             : BT.709
    Transfer characteristics    : BT.709
    Matrix coefficients         : BT.709
    Statistics Tags Issue       : mkvmerge v10.0.0 ('To Drown In You') 64bit 2017-05-21 00:29:43 / mkvmerge v10.0.0 ('To Drown In You') 64bit 2017-05-21 00:29:43 / UTC 2017-05-20T18:58:46Z
    FromStats_BitRate           : 3369090
    FromStats_Duration          : 01:59:05.209000000
    FromStats_FrameCount        : 171485
    FromStats_StreamSize        : 3009106533

    Audio #1
    ID                          : 2
    Format                      : AC-3
    Format/Info                 : Audio Coding 3
    Format settings, Endianness : Big
    Codec ID                    : A_AC3
    Duration                    : 1 h 59 min
    Bit rate mode               : Constant
    Bit rate                    : 224 kb/s
    Channel(s)                  : 2 channels
    Channel positions           : Front: L R
    Sampling rate               : 48.0 kHz
    Frame rate                  : 31.250 FPS (1536 spf)
    Bit depth                   : 16 bits
    Compression mode            : Lossy
    Delay relative to video     : 195 ms
    Stream size                 : 191 MiB (6%)
    Language                    : Spanish
    Service kind                : Complete Main
    Default                     : Yes
    Forced                      : No
    Statistics Tags Issue       : mkvmerge v10.0.0 ('To Drown In You') 64bit 2017-05-21 00:29:43 / mkvmerge v10.0.0 ('To Drown In You') 64bit 2017-05-21 00:29:43 / UTC 2017-05-20T18:58:46Z
    FromStats_BitRate           : 224000
    FromStats_Duration          : 01:59:01.984000000
    FromStats_FrameCount        : 223187
    FromStats_StreamSize        : 199975552

    Audio #2
    ID                          : 3
    Format                      : AC-3
    Format/Info                 : Audio Coding 3
    Format settings, Endianness : Big
    Codec ID                    : A_AC3
    Duration                    : 1 h 59 min
    Bit rate mode               : Constant
    Bit rate                    : 384 kb/s
    Channel(s)                  : 6 channels
    Channel positions           : Front: L C R, Side: L R, LFE
    Sampling rate               : 48.0 kHz
    Frame rate                  : 31.250 FPS (1536 spf)
    Bit depth                   : 16 bits
    Compression mode            : Lossy
    Delay relative to video     : -5 ms
    Stream size                 : 327 MiB (10%)
    Title                       : Surround
    Language                    : French
    Service kind                : Complete Main
    Default                     : No
    Forced                      : No
    Statistics Tags Issue       : mkvmerge v10.0.0 ('To Drown In You') 64bit 2017-05-21 00:29:43 / mkvmerge v10.0.0 ('To Drown In You') 64bit 2017-05-21 00:29:43 / UTC 2017-05-20T18:58:46Z
    FromStats_BitRate           : 384000
    FromStats_Duration          : 01:59:05.184000000
    FromStats_FrameCount        : 223287
    FromStats_StreamSize        : 342968832

    Text #1
    ID                          : 4
    Format                      : UTF-8
    Codec ID                    : S_TEXT/UTF8
    Codec ID/Info               : UTF-8 Plain Text
    Language                    : Spanish
    Default                     : No
    Forced                      : No
    Statistics Tags Issue       : mkvmerge v10.0.0 ('To Drown In You') 64bit 2017-05-21 00:29:43 / mkvmerge v10.0.0 ('To Drown In You') 64bit 2017-05-21 00:29:43 / UTC 2017-05-20T18:58:46Z
    FromStats_BitRate           : 47
    FromStats_Duration          : 01:51:07.076000000
    FromStats_FrameCount        : 1282
    FromStats_StreamSize        : 39828

    Text #2
    ID                          : 5
    Format                      : UTF-8
    Codec ID                    : S_TEXT/UTF8
    Codec ID/Info               : UTF-8 Plain Text
    Language                    : Spanish
    Default                     : Yes
    Forced                      : No
    Statistics Tags Issue       : mkvmerge v10.0.0 ('To Drown In You') 64bit 2017-05-21 00:29:43 / mkvmerge v10.0.0 ('To Drown In You') 64bit 2017-05-21 00:29:43 / UTC 2017-05-20T18:58:46Z
    FromStats_BitRate           : 91
    FromStats_Duration          : 00:00:10.100000000
    FromStats_FrameCount        : 1
    FromStats_StreamSize        : 115

    Menu
    00:00:00.000                : :00:00:00.000
    00:14:48.708                : :00:14:48.667
    00:29:34.500                : :00:29:34.500
    00:45:52.208                : :00:45:52.208
    00:59:31.083                : :00:59:31.083
    01:14:59.708                : :01:14:59.667
    01:30:02.292                : :01:30:02.292
    01:44:37.917                : :01:44:37.833

  • Peso: 3.31 GB

Sinopsis

Belle Epoque. El payaso Chocolate (Omar Sy), el primer hombre negro que trabajaba en un circo francés, ha sido un gran éxito a finales del siglo XIX. E ‘fue también la primera publicidad, que inspiró a otros artistas de la época como Toulouse Lautrec y los hermanos Luz involucrados en muchas de sus primeras películas. Él y el payaso Foottit (James Thierrée) ha puesto en marcha la creación de un dúo entre un payaso “Cara Blanca” y un payaso “Augusto” negro. Chocolate, cuyo nombre fue Rafael Padilla nació en Cuba alrededor de 1865 y, como un niño, se trasladó a Europa. En España, trabajó como empleada doméstica, la minería y la limpieza de zapatos. El destino lo llevó a Francia para trabajar en el circo. Pasó de ser un hombre libre un esclavo, el teatro, el circo y el anonimato a la fama.

Ficha técnica

  • Titulo original: Chocolat
  • Fecha de lanzamiento: 03-02-2016 (France)
  • Director: Roschdy Zem
  • Género: Comedia, Drama
  • Puntuación: 5.0 1 votos
  • Duración:
    1h 50m

Imágenes, Capturas de la película

Video trailer de la película

Enlaces de descarga

Descargar Chocolat (2016) 1080p Latino
Descargar

dpeliculas

Aportes de DPeliculasHDmega la pass es:dpeliculashdmega.org Aportes de CinemaniaHD la pass es:cinemaniahdd.com
Guardado en : Comedia , Drama

PelícuDelas relacionadas

  • It – Eso (1990) WEBDL 1080p Latino

    1990
    It – Eso (1990) WEBDL 1080p Latino

    0.0 3h 7m 1990

    Descargar Stephen King's It  hd latino, tambien conocida como It o ESO Un tranquilo y pequeño pueblo...

    Director: Tommy Lee Wallace

    Género: Drama

    Actores: Tim Reid

  • The Walking Dead (2017) Temporada 7 Full Latino

    2016
    The Walking Dead (2017) Temporada 7 Full Latino

    0.0 0h 42m 2016

    Descarga The Walking Dead Temporada 7 hd latino, Hasta este punto, nuestros personajes han vivido a través...

    Director: Frank Darabont

    Género: Drama

    Actores: Norman Reedus

  • Snowden (2016) 1080p Latino

    2016
    Snowden (2016) 1080p Latino

    0.0 2h 15m 2016

    Basada en el libro "The Snowden files. The inside story of the world's most wanted man" escrito por Luke...

    Director: Oliver Stone

    Género: Drama

    Actores: Zachary Quinto

Comentarios 1
  • eduard cubillos - 21 Mayo, 2017

    hola le agradezco por compartir sandra en caratula gris gracias