CHiPs (2017) Full 1080p Latino

600 vistas
1 estrella2 estrellas3 estrellas4 estrellas5 estrellas (1 votos, promedio: 1,00 de 5)
Cargando…

Información de CHiPs (2017) Full 1080p Latino

Datos de la película

  • Calidad: Full 1080p
  • Audio: Español Latino AC3 5.1 BLURAY - Ingles DTS 5.1 BLURAY
  • Subtitulos: Español Latino PGS - Ingles PGS
  • Resolución: 1920x1080p
  • Formato: MKV
  • Codec: H.264
  • Encoder: Dpelis
  • Mediainfo: Ver Ver
  • Chips 2017 Full 1080p Latino.mkv
    Format                      : Matroska
    Format version              : Version 4 / Version 2
    File size                   : 6.23 GiB
    Duration                    : 1 h 40 min
    Overall bit rate            : 8 842 kb/s
    Movie name                  : DPeliculasHDMega.ORG
    Encoded date                : UTC 2017-06-18 15:30:53 / UTC 2017-06-17T13:44:16Z
    Writing application         : mkvmerge v10.0.0 ('To Drown In You') 64bit
    Writing library             : libebml v1.3.4 + libmatroska v1.4.5 / Lavf57.7.2

    Video
    ID                          : 1
    Format                      : AVC
    Format/Info                 : Advanced Video Codec
    Format profile              : [email protected]
    Format settings, CABAC      : Yes
    Format settings, ReFrames   : 4 frames
    Codec ID                    : V_MPEG4/ISO/AVC
    Duration                    : 1 h 40 min
    Bit rate                    : 6 517 kb/s
    Width                       : 1 920 pixels
    Height                      : 1 080 pixels
    Display aspect ratio        : 16:9
    Frame rate mode             : Constant
    Frame rate                  : 23.976 (24000/1001) FPS
    Color space                 : YUV
    Chroma subsampling          : 4:2:0
    Bit depth                   : 8 bits
    Scan type                   : Progressive
    Bits/(Pixel*Frame)          : 0.131
    Stream size                 : 4.59 GiB (74%)
    Writing library             : x264 core 148 r2708 86b7198
    Encoding settings           : cabac=1 / ref=4 / deblock=1:0:0 / analyse=0x3:0x133 / me=esa / subme=10 / psy=1 / psy_rd=1.00:0.00 / mixed_ref=1 / me_range=24 / chroma_me=1 / trellis=2 / 8x8dct=1 / cqm=0 / deadzone=21,11 / fast_pskip=1 / chroma_qp_offset=-2 / threads=12 / lookahead_threads=2 / sliced_threads=0 / nr=0 / decimate=1 / interlaced=0 / bluray_compat=0 / constrained_intra=0 / bframes=8 / b_pyramid=2 / b_adapt=2 / b_bias=0 / direct=3 / weightb=1 / open_gop=0 / weightp=2 / keyint=240 / keyint_min=24 / scenecut=40 / intra_refresh=0 / rc_lookahead=60 / rc=crf / mbtree=1 / crf=20.0 / qcomp=0.60 / qpmin=0 / qpmax=69 / qpstep=4 / vbv_maxrate=62500 / vbv_bufsize=78125 / crf_max=0.0 / nal_hrd=none / filler=0 / ip_ratio=1.40 / aq=1:1.00
    Default                     : Yes
    Forced                      : No
    Color range                 : Limited
    Color primaries             : BT.709
    Transfer characteristics    : BT.709
    Matrix coefficients         : BT.709
    Statistics Tags Issue       : mkvmerge v10.0.0 ('To Drown In You') 64bit 2017-06-18 15:30:53 / mkvmerge v10.0.0 ('To Drown In You') 64bit 2017-06-18 15:30:53 / UTC 2017-06-17T13:44:16Z
    FromStats_BitRate           : 6658603
    FromStats_Duration          : 01:40:51.921000000
    FromStats_FrameCount        : 145101
    FromStats_StreamSize        : 5037168003

    Audio #1
    ID                          : 2
    Format                      : AC-3
    Format/Info                 : Audio Coding 3
    Format settings, Endianness : Big
    Codec ID                    : A_AC3
    Duration                    : 1 h 40 min
    Bit rate mode               : Constant
    Bit rate                    : 640 kb/s
    Channel(s)                  : 6 channels
    Channel positions           : Front: L C R, Side: L R, LFE
    Sampling rate               : 48.0 kHz
    Frame rate                  : 31.250 FPS (1536 spf)
    Bit depth                   : 16 bits
    Compression mode            : Lossy
    Stream size                 : 462 MiB (7%)
    Title                       : Surround
    Language                    : Spanish
    Service kind                : Complete Main
    Default                     : Yes
    Forced                      : No
    Statistics Tags Issue       : mkvmerge v10.0.0 ('To Drown In You') 64bit 2017-06-18 15:30:53 / mkvmerge v10.0.0 ('To Drown In You') 64bit 2017-06-18 15:30:53 / UTC 2017-06-17T13:44:16Z
    FromStats_BitRate           : 640000
    FromStats_Duration          : 01:40:51.968000000
    FromStats_FrameCount        : 189124
    FromStats_StreamSize        : 484157440

    Audio #2
    ID                          : 3
    Format                      : DTS
    Format/Info                 : Digital Theater Systems
    Mode                        : 16
    Format settings, Endianness : Big
    Codec ID                    : A_DTS
    Duration                    : 1 h 40 min
    Bit rate mode               : Constant
    Bit rate                    : 1 509 kb/s
    Channel(s)                  : 6 channels
    Channel positions           : Front: L C R, Side: L R, LFE
    Sampling rate               : 48.0 kHz
    Frame rate                  : 93.750 FPS (512 spf)
    Bit depth                   : 24 bits
    Compression mode            : Lossy
    Stream size                 : 1.06 GiB (17%)
    Title                       : Surround
    Language                    : English
    Default                     : No
    Forced                      : No
    Statistics Tags Issue       : mkvmerge v10.0.0 ('To Drown In You') 64bit 2017-06-18 15:30:53 / mkvmerge v10.0.0 ('To Drown In You') 64bit 2017-06-18 15:30:53 / UTC 2017-06-17T13:44:16Z
    FromStats_BitRate           : 1508999
    FromStats_Duration          : 01:40:51.958000000
    FromStats_FrameCount        : 567371
    FromStats_StreamSize        : 1141550452

    Text #1
    ID                          : 4
    Format                      : PGS
    Muxing mode                 : zlib
    Codec ID                    : S_HDMV/PGS
    Codec ID/Info               : Picture based subtitle format used on BDs/HD-DVDs
    Language                    : Spanish
    Default                     : No
    Forced                      : No
    Statistics Tags Issue       : mkvmerge v10.0.0 ('To Drown In You') 64bit 2017-06-18 15:30:53 / mkvmerge v10.0.0 ('To Drown In You') 64bit 2017-06-18 15:30:53 / UTC 2017-06-17T13:44:16Z
    FromStats_BitRate           : 14241
    FromStats_Duration          : 01:40:19.096000000
    FromStats_FrameCount        : 3762
    FromStats_StreamSize        : 10715125

    Text #2
    ID                          : 5
    Format                      : PGS
    Muxing mode                 : zlib
    Codec ID                    : S_HDMV/PGS
    Codec ID/Info               : Picture based subtitle format used on BDs/HD-DVDs
    Language                    : Spanish
    Default                     : No
    Forced                      : No
    Statistics Tags Issue       : mkvmerge v10.0.0 ('To Drown In You') 64bit 2017-06-18 15:30:53 / mkvmerge v10.0.0 ('To Drown In You') 64bit 2017-06-18 15:30:53 / UTC 2017-06-17T13:44:16Z
    FromStats_BitRate           : 162
    FromStats_Duration          : 01:38:12.637000000
    FromStats_FrameCount        : 32
    FromStats_StreamSize        : 119885

    Text #3
    ID                          : 6
    Format                      : PGS
    Muxing mode                 : zlib
    Codec ID                    : S_HDMV/PGS
    Codec ID/Info               : Picture based subtitle format used on BDs/HD-DVDs
    Language                    : English
    Default                     : No
    Forced                      : No
    Statistics Tags Issue       : mkvmerge v10.0.0 ('To Drown In You') 64bit 2017-06-18 15:30:53 / mkvmerge v10.0.0 ('To Drown In You') 64bit 2017-06-18 15:30:53 / UTC 2017-06-17T13:44:16Z
    FromStats_BitRate           : 17023
    FromStats_Duration          : 01:39:50.693000000
    FromStats_FrameCount        : 4079
    FromStats_StreamSize        : 12748010

    Text #4
    ID                          : 7
    Format                      : UTF-8
    Codec ID                    : S_TEXT/UTF8
    Codec ID/Info               : UTF-8 Plain Text
    Title                       : FORZADOS
    Language                    : Spanish
    Default                     : Yes
    Forced                      : No
    Statistics Tags Issue       : mkvmerge v10.0.0 ('To Drown In You') 64bit 2017-06-18 15:30:53 / mkvmerge v10.0.0 ('To Drown In You') 64bit 2017-06-18 15:30:53 / UTC 2017-06-17T13:44:16Z
    FromStats_BitRate           : 1
    FromStats_Duration          : 01:38:13.776000000
    FromStats_FrameCount        : 41
    FromStats_StreamSize        : 1404

    Menu
    00:00:00.000                : :Chapter 1
    00:10:48.356                : :Chapter 2
    00:19:28.959                : :Chapter 3
    00:29:58.005                : :Chapter 4
    00:39:53.600                : :Chapter 5
    00:50:45.668                : :Chapter 6
    01:02:38.421                : :Chapter 7
    01:13:40.249                : :Chapter 8
    01:25:41.386                : :Chapter 9
    01:37:41.939                : :Chapter 10

  • Peso: 6.23 GB

Sinopsis

Descargar Gratis CHiPs HD Latino,Dax Shepard (Fuga explosiva) escribe y dirige esta adaptación a la gran pantalla de la popular serie de los 70. En ella veremos las aventuras de una patrulla de policías motorizados que trabajan en Los Ángeles.

Está protagonizada por Shepard como el oficial Jon Baker y Michael Peña (Marte) como Frank “Ponch” Poncherello, además de contar con Kristen Bell (Es la jefa), Vincent D’Onofrio (la serie Daredevil), Adam Brody (Yoga Hosers), Ryan Hansen (Un espía y medio) y Rosa Salazar (El corredor del laberinto: La cura mortal), entre otros.

Ficha técnica

Imágenes, Capturas de la película

Video trailer de la película

Enlaces de descarga

Descargar CHiPs (2017) Full 1080p Latino
Descargar
Descargar

dpeliculas

Aportes de DPeliculasHDmega la pass es:dpeliculashdmega.org Aportes de CinemaniaHD la pass es:cinemaniahdd.com

PelícuDelas relacionadas

  • Nightmare on Elm street 6 (1991) Full Latino

    1991
    Nightmare on Elm street 6 (1991) Full Latino

    0.0 0h 0m 1991

    Descargar gratis Nightmare on Elm street 6 (1991) Full Latino Mega. Después de diez años, Freddy Krueger...

    Director: Rachel Talalay

    Género: Comedia

    Actores: Yaphet Kotto

  • Sahara (2017) Full Latino

    2017
    Sahara (2017) Full Latino

    0.0 0h 0m 2017

    Descargar gratis Sahara (2017) Full Latino Mega. Cansados de ser el chivo expiatorio de su comunidad,...

    Director: Pierre Coré

    Género: Animación

    Actores: Vincent Lacoste

  • T2 Trainspotting (2017) Full 1080p Latino

    2017
    T2 Trainspotting (2017) Full 1080p Latino

    5.0 1h 57m 2017

    Han pasado 20 años desde que Mark Renton abandonara Escocia, y la heroína. Ahora, Renton vuelve a su...

    Director: Sylvia Parker

    Género: Crimen

    Actores: Tom Urie

  • Potosí (2013) WEBDL 1080p Latino

    2013
    Potosí (2013) WEBDL 1080p Latino

    0.0 0h 0m 2013

    Este largometraje con Alfredo Castruita en la dirección se estrenó en 2013 en festivales pero no ha...

    Director: Alfredo Castruita

    Género: Crimen

    Actores: Sonia Couoh

  • Sahara (2017) 1080p Latino

    2017
    Sahara (2017) 1080p Latino

    3.0 1h 19m 2017

    Cansado de ser el chivo expiatorio de su comunidad, entreabierta una serpiente y su amigo Pitt, escorpión,...

    Director: Pierre Coré

    Género: Animación

    Actores: Vincent Lacoste

Comentarios 0