Chasing Coral (2017) Webdl 1080p Latino

1.037 vistas
1 estrella2 estrellas3 estrellas4 estrellas5 estrellas (1 votos, promedio: 4,00 de 5)
Cargando…

Información de Chasing Coral (2017) Webdl 1080p Latino

Datos de la película

  • Calidad: WEBDL
  • Audio: Se especifica abajo de la Sinopsis
  • Subtitulos: Español Latino SRT - Ingles SRT
  • Resolución: 1920x1080p
  • Formato: MKV
  • Codec: H.264
  • Encoder: Dpelis
  • Mediainfo: Ver Ver
  • Chasing.coral.2017.1080p.webdl.1080p Latino.mkv
    Format                      : Matroska
    Format version              : Version 4 / Version 2
    File size                   : 2.82 GiB
    Duration                    : 1 h 29 min
    Overall bit rate            : 4 512 kb/s
    Movie name                  : DPeliculasHDMega.ORG
    Encoded date                : UTC 2017-07-15 16:22:19 / UTC 2017-07-15T14:17:38Z
    Writing application         : mkvmerge v10.0.0 ('To Drown In You') 64bit
    Writing library             : libebml v1.3.4 + libmatroska v1.4.5 / Lavf57.7.2

    Video
    ID                          : 1
    Format                      : AVC
    Format/Info                 : Advanced Video Codec
    Format profile              : [email protected]
    Format settings, CABAC      : Yes
    Format settings, ReFrames   : 4 frames
    Codec ID                    : V_MPEG4/ISO/AVC
    Duration                    : 1 h 29 min
    Bit rate                    : 3 500 kb/s
    Width                       : 1 920 pixels
    Height                      : 1 080 pixels
    Display aspect ratio        : 16:9
    Frame rate mode             : Constant
    Frame rate                  : 23.976 (24000/1001) FPS
    Color space                 : YUV
    Chroma subsampling          : 4:2:0
    Bit depth                   : 8 bits
    Scan type                   : Progressive
    Bits/(Pixel*Frame)          : 0.070
    Stream size                 : 2.12 GiB (75%)
    Writing library             : x264 core 148 r2708 86b7198
    Encoding settings           : cabac=1 / ref=3 / deblock=1:0:0 / analyse=0x3:0x113 / me=hex / subme=7 / psy=1 / psy_rd=1.00:0.00 / mixed_ref=1 / me_range=16 / chroma_me=1 / trellis=1 / 8x8dct=1 / cqm=0 / deadzone=21,11 / fast_pskip=1 / chroma_qp_offset=-2 / threads=34 / lookahead_threads=5 / sliced_threads=0 / nr=0 / decimate=1 / interlaced=0 / bluray_compat=0 / constrained_intra=0 / bframes=3 / b_pyramid=2 / b_adapt=1 / b_bias=0 / direct=1 / weightb=1 / open_gop=0 / weightp=2 / keyint=240 / keyint_min=24 / scenecut=40 / intra_refresh=0 / rc_lookahead=40 / rc=abr / mbtree=1 / bitrate=3500 / ratetol=1.0 / qcomp=0.60 / qpmin=0 / qpmax=69 / qpstep=4 / vbv_maxrate=62500 / vbv_bufsize=78125 / nal_hrd=none / filler=0 / ip_ratio=1.40 / aq=1:1.00
    Default                     : Yes
    Forced                      : No
    Color range                 : Limited
    Color primaries             : BT.709
    Transfer characteristics    : BT.709
    Matrix coefficients         : BT.709
    Statistics Tags Issue       : mkvmerge v10.0.0 ('To Drown In You') 64bit 2017-07-15 16:22:19 / mkvmerge v10.0.0 ('To Drown In You') 64bit 2017-07-15 16:22:19 / UTC 2017-07-15T14:17:38Z
    FromStats_BitRate           : 3486202
    FromStats_Duration          : 01:29:19.479000000
    FromStats_FrameCount        : 128499
    FromStats_StreamSize        : 2335528938

    Audio #1
    ID                          : 2
    Format                      : AC-3
    Format/Info                 : Audio Coding 3
    Format settings, Endianness : Big
    Codec ID                    : A_AC3
    Duration                    : 1 h 29 min
    Bit rate mode               : Constant
    Bit rate                    : 640 kb/s
    Channel(s)                  : 6 channels
    Channel positions           : Front: L C R, Side: L R, LFE
    Sampling rate               : 48.0 kHz
    Frame rate                  : 31.250 FPS (1536 spf)
    Bit depth                   : 16 bits
    Compression mode            : Lossy
    Stream size                 : 409 MiB (14%)
    Language                    : Spanish
    Service kind                : Complete Main
    Default                     : Yes
    Forced                      : No
    Statistics Tags Issue       : mkvmerge v10.0.0 ('To Drown In You') 64bit 2017-07-15 16:22:19 / mkvmerge v10.0.0 ('To Drown In You') 64bit 2017-07-15 16:22:19 / UTC 2017-07-15T14:17:38Z
    FromStats_BitRate           : 640000
    FromStats_Duration          : 01:29:19.904000000
    FromStats_FrameCount        : 167497
    FromStats_StreamSize        : 428792320

    Audio #2
    ID                          : 3
    Format                      : AC-3
    Format/Info                 : Audio Coding 3
    Format settings, Endianness : Big
    Codec ID                    : A_AC3
    Duration                    : 1 h 29 min
    Bit rate mode               : Constant
    Bit rate                    : 384 kb/s
    Channel(s)                  : 6 channels
    Channel positions           : Front: L C R, Side: L R, LFE
    Sampling rate               : 48.0 kHz
    Frame rate                  : 31.250 FPS (1536 spf)
    Bit depth                   : 16 bits
    Compression mode            : Lossy
    Stream size                 : 245 MiB (9%)
    Title                       : Surround
    Language                    : English
    Service kind                : Complete Main
    Default                     : No
    Forced                      : No
    Statistics Tags Issue       : mkvmerge v10.0.0 ('To Drown In You') 64bit 2017-07-15 16:22:19 / mkvmerge v10.0.0 ('To Drown In You') 64bit 2017-07-15 16:22:19 / UTC 2017-07-15T14:17:38Z
    FromStats_BitRate           : 384000
    FromStats_Duration          : 01:29:19.904000000
    FromStats_FrameCount        : 167497
    FromStats_StreamSize        : 257275392

    Text #1
    ID                          : 4
    Format                      : UTF-8
    Codec ID                    : S_TEXT/UTF8
    Codec ID/Info               : UTF-8 Plain Text
    Language                    : Spanish
    Default                     : No
    Forced                      : No
    Statistics Tags Issue       : mkvmerge v10.0.0 ('To Drown In You') 64bit 2017-07-15 16:22:19 / mkvmerge v10.0.0 ('To Drown In You') 64bit 2017-07-15 16:22:19 / UTC 2017-07-15T14:17:38Z
    FromStats_BitRate           : 82
    FromStats_Duration          : 01:23:49.749000000
    FromStats_FrameCount        : 1131
    FromStats_StreamSize        : 52089

    Text #2
    ID                          : 5
    Format                      : UTF-8
    Codec ID                    : S_TEXT/UTF8
    Codec ID/Info               : UTF-8 Plain Text
    Title                       : FORZADOS
    Language                    : Spanish
    Default                     : Yes
    Forced                      : No
    Statistics Tags Issue       : mkvmerge v10.0.0 ('To Drown In You') 64bit 2017-07-15 16:22:19 / mkvmerge v10.0.0 ('To Drown In You') 64bit 2017-07-15 16:22:19 / UTC 2017-07-15T14:17:38Z
    FromStats_BitRate           : 7
    FromStats_Duration          : 01:22:07.319000000
    FromStats_FrameCount        : 134
    FromStats_StreamSize        : 4494

    Text #3
    ID                          : 6
    Format                      : UTF-8
    Codec ID                    : S_TEXT/UTF8
    Codec ID/Info               : UTF-8 Plain Text
    Language                    : English
    Default                     : No
    Forced                      : No
    Statistics Tags Issue       : mkvmerge v10.0.0 ('To Drown In You') 64bit 2017-07-15 16:22:19 / mkvmerge v10.0.0 ('To Drown In You') 64bit 2017-07-15 16:22:19 / UTC 2017-07-15T14:17:38Z
    FromStats_BitRate           : 88
    FromStats_Duration          : 01:23:30.019000000
    FromStats_FrameCount        : 1140
    FromStats_StreamSize        : 55250

  • Peso: 2.82 GB

Sinopsis

Los arrecifes de coral son el vivero para toda la vida en los océanos, un ecosistema notable que nos sostiene. Sin embargo, con las emisiones de carbono que calientan los mares, un fenómeno llamado “blanqueamiento de coral” -una señal de muerte de coral en masa- se ha acelerado en todo el mundo y el público no tiene idea de la magnitud o implicación de la catástrofe que ruge silenciosamente bajo el agua.

Español Latino AC3 5.1 – Ingles AC3 5.1

Ficha técnica

  • Titulo original: Chasing Coral
  • Fecha de lanzamiento: 16-03-2017 (United States of America)
  • Director: Jeff Orlowski
  • Género: Documental
  • Puntuación: 4.0 1 votos
  • Duración:
    1h 24m

Imágenes, Capturas de la película

Video trailer de la película

Enlaces de descarga

Descargar Chasing Coral (2017) Webdl 1080p Latino
Descargar

dpeliculas

Aportes de DPeliculasHDmega la pass es:dpeliculashdmega.org Aportes de CinemaniaHD la pass es:cinemaniahdd.com
Guardado en : Documental

PelícuDelas relacionadas

  • Born in China (2016) 1080p Latino

    2017
    Born in China (2016) 1080p Latino

    4.0 1h 19m 2017

    Documental de la filial de Walt Disney Disneynature que recoge la vida salvaje y la belleza natural de...

    Director: Lu Chuan

    Género: Documental

    Actores: Zhou Xun

  • Icarus (2017) Webdl 1080p Latino

    2017
    Icarus (2017) Webdl 1080p Latino

    5.0 2h1m 2017

    Mientras investiga el mundo furtivo del dopaje ilegal en los deportes, el director Bryan Fogel se conecta...

    Director: Bryan Fogel

    Género: Documental

    Actores: Nikita Kamaev

  • McLaren (2017) 1080p Latino

    2017
    McLaren (2017) 1080p Latino

    0.0 0h 0m 2017

    La historia de Bruce McLaren, el neozelandes fundador del equipo McLaren Motor Racing team. Un hombre...

    Director: Roger Donaldson

    Género: Documental

    Actores: Matt Coldrick

  • Antes de la Inundación (2016) WEBDL 1080p Latino

    2016
    Antes de la Inundación (2016) WEBDL 1080p Latino

    3.0 1h 36m 2016

    Una mirada a los efectos del cambio climático en nuestro entorno y cómo la sociedad puede prevenirlos,...

    Director: Fisher Stevens

    Género: Documental

    Actores: Tommy E. Remengesau Jr.

Comentarios 2
  • slash - 30 julio, 2017

    Gracias cine, esta bueno el documental.

    Fíjate que la vi subtítulada, pero los subtítulos en español son un poco malos, ademas de que están desfasados, así que los cambie por los de Tamabin, te dejo los subtítulos subidos a un enlace propio, también añado forzados hechos con estos subtítulos, saludos.

    https://mega.nz/#F!09cXzahY!xDZPUHXWvpwoT0S_l5qyCg

    • dpelis

      Administrador
      - 30 julio, 2017

      gracias por los sub