Casi leyendas (2017) Webdl 1080p Latino

720 vistas
1 estrella2 estrellas3 estrellas4 estrellas5 estrellas (Ninguna valoración todavía)
Cargando…

Información de Casi leyendas (2017) Webdl 1080p Latino

Datos de la película

  • Calidad: WEBDL
  • Audio: Español Latino AC3 5.1 iTunes
  • Subtitulos: Español Latino SRT
  • Resolución: 1920x800p
  • Formato: MKV
  • Codec: H.264
  • Encoder: Dpelis
  • Mediainfo: Ver Ver
  • \Casi Leyendas (2017) Webdl 1080p Latino.mkv
    Format                      : Matroska
    Format version              : Version 4 / Version 2
    File size                   : 3.13 GiB
    Duration                    : 1 h 55 min
    Overall bit rate            : 3 870 kb/s
    Movie name                  : Casi.Leyendas.(2017)
    Encoded date                : UTC 2017-07-03 17:55:09 / UTC 2017-07-03T14:28:24Z
    Writing application         : mkvmerge v10.0.0 ('To Drown In You') 64bit
    Writing library             : libebml v1.3.4 + libmatroska v1.4.5 / Lavf57.7.2

    Video
    ID                          : 1
    Format                      : AVC
    Format/Info                 : Advanced Video Codec
    Format profile              : [email protected]
    Format settings, CABAC      : Yes
    Format settings, ReFrames   : 4 frames
    Codec ID                    : V_MPEG4/ISO/AVC
    Duration                    : 1 h 55 min
    Bit rate                    : 3 500 kb/s
    Width                       : 1 920 pixels
    Height                      : 800 pixels
    Display aspect ratio        : 2.40:1
    Frame rate mode             : Constant
    Frame rate                  : 24.000 FPS
    Color space                 : YUV
    Chroma subsampling          : 4:2:0
    Bit depth                   : 8 bits
    Scan type                   : Progressive
    Bits/(Pixel*Frame)          : 0.095
    Stream size                 : 2.76 GiB (88%)
    Writing library             : x264 core 148 r2708 86b7198
    Encoding settings           : cabac=1 / ref=3 / deblock=1:0:0 / analyse=0x3:0x113 / me=hex / subme=7 / psy=1 / psy_rd=1.00:0.00 / mixed_ref=1 / me_range=16 / chroma_me=1 / trellis=1 / 8x8dct=1 / cqm=0 / deadzone=21,11 / fast_pskip=1 / chroma_qp_offset=-2 / threads=12 / lookahead_threads=2 / sliced_threads=0 / nr=0 / decimate=1 / interlaced=0 / bluray_compat=0 / constrained_intra=0 / bframes=3 / b_pyramid=2 / b_adapt=1 / b_bias=0 / direct=1 / weightb=1 / open_gop=0 / weightp=2 / keyint=240 / keyint_min=24 / scenecut=40 / intra_refresh=0 / rc_lookahead=40 / rc=abr / mbtree=1 / bitrate=3500 / ratetol=1.0 / qcomp=0.60 / qpmin=0 / qpmax=69 / qpstep=4 / vbv_maxrate=62500 / vbv_bufsize=78125 / nal_hrd=none / filler=0 / ip_ratio=1.40 / aq=1:1.00
    Default                     : Yes
    Forced                      : No
    Color range                 : Limited
    Color primaries             : BT.709
    Transfer characteristics    : BT.709
    Matrix coefficients         : BT.709
    Statistics Tags Issue       : mkvmerge v10.0.0 ('To Drown In You') 64bit 2017-07-03 17:55:09 / mkvmerge v10.0.0 ('To Drown In You') 64bit 2017-07-03 17:55:09 / UTC 2017-07-03T14:28:24Z
    FromStats_BitRate           : 3484290
    FromStats_Duration          : 01:55:41.500000000
    FromStats_FrameCount        : 166596
    FromStats_StreamSize        : 3023275379

    Audio
    ID                          : 2
    Format                      : AC-3
    Format/Info                 : Audio Coding 3
    Format settings, Endianness : Big
    Codec ID                    : A_AC3
    Duration                    : 1 h 55 min
    Bit rate mode               : Constant
    Bit rate                    : 384 kb/s
    Channel(s)                  : 6 channels
    Channel positions           : Front: L C R, Side: L R, LFE
    Sampling rate               : 48.0 kHz
    Frame rate                  : 31.250 FPS (1536 spf)
    Bit depth                   : 16 bits
    Compression mode            : Lossy
    Stream size                 : 318 MiB (10%)
    Title                       : Surround
    Language                    : Spanish
    Service kind                : Complete Main
    Default                     : Yes
    Forced                      : No
    Statistics Tags Issue       : mkvmerge v10.0.0 ('To Drown In You') 64bit 2017-07-03 17:55:09 / mkvmerge v10.0.0 ('To Drown In You') 64bit 2017-07-03 17:55:09 / UTC 2017-07-03T14:28:24Z
    FromStats_BitRate           : 384000
    FromStats_Duration          : 01:55:42.368000000
    FromStats_FrameCount        : 216949
    FromStats_StreamSize        : 333233664

    Text
    ID                          : 3
    Format                      : ASS
    Codec ID                    : S_TEXT/ASS
    Codec ID/Info               : Advanced Sub Station Alpha
    Compression mode            : Lossless
    Language                    : Spanish
    Default                     : No
    Forced                      : No
    Statistics Tags Issue       : mkvmerge v10.0.0 ('To Drown In You') 64bit 2017-07-03 17:55:09 / mkvmerge v10.0.0 ('To Drown In You') 64bit 2017-07-03 17:55:09 / UTC 2017-07-03T14:28:24Z
    FromStats_BitRate           : 141
    FromStats_Duration          : 01:52:25.833000000
    FromStats_FrameCount        : 1828
    FromStats_StreamSize        : 119316

  • Peso: 3.13 GB

Sinopsis

Tres amigos distanciados se van a ver obligados a reunirse muy a su pesar. Axel, un español muy particular, decide emprender la búsqueda de sus ex compañeros en Buenos Aires. Hace 25 años formaron un grupo musical que estuvo a punto de ser famoso pero, por misteriosas razones, nunca lo logró. Ahora Axel va a tener que reencontrarse con Javier, un profesor que no logra comunicarse con su hijo adolescente, y Lucas, un presumido abogado que pierde su trabajo de un día para el otro. Los espera un doble desafío: ser la banda que siempre soñaron y, de paso, intentar solucionar sus calamitosas vidas.

Ficha técnica

  • Titulo original: Casi leyendas
  • Fecha de lanzamiento: 16-03-2017 (Argentina, Spain)
  • Director: Gabriel Nesci
  • Género: Comedia, Drama, Música
  • Puntuación: 0.0 0 votos
  • Duración:
    1h 56m

Imágenes, Capturas de la película

Video trailer de la película

Enlaces de descarga

Descargar Casi leyendas (2017) Webdl 1080p Latino
Descargar

dpeliculas

Aportes de DPeliculasHDmega la pass es:dpeliculashdmega.org Aportes de CinemaniaHD la pass es:cinemaniahdd.com
Guardado en : Comedia , Drama , Música

PelícuDelas relacionadas

  • Fe de etarras (2017) WEB-DL 1080p Castellano

    2017
    Fe de etarras (2017) WEB-DL 1080p Castellano

    0.0 1 h 29 min 2017

    La cinta narrará cómo vive un "comando disfuncional" que espera una llamada para actuar. Transcurre...

    Director: Borja Cobeaga

    Género: Comedia

    Actores: Tina Sáinz

  • Una historia de venganza (2017) 1080p Latino

    2017
    Una historia de venganza (2017) 1080p Latino

    0.0 1 h 33 min 2017

    Una historia de venganza narra la historia del accidente real de avión que tuvo lugar en Überlingen...

    Director: Sarah Horton

    Género: Drama

    Actores: William Willet

  • Ahora me ves 2 (2016) 2160p 4K UHD HDR Latino-Ingles

    2016
    Ahora me ves 2 (2016) 2160p 4K UHD HDR Latino-Ingles

    0.0 1h 55m 2016

    Descargar gratis Ahora me ves 2 (2016) 2160p 4K UHD HDR Latino-Ingles. Un año dspués de despistar al...

    Director: Jon M. Chu

    Género: Acción

    Actores: Zoey Callandria Jones

  • La guerra del planeta de los simios (2017) Full 1080p Latino

    2017
    La guerra del planeta de los simios (2017) Full 1080p Latino

    5.0 2 h 20 min 2017

    César (Andy Serkis) jura que no comenzó la guerra. Pero él y su nación de simios genéticamente evolucionados...

    Director: Matt Reeves

    Género: Ciencia ficción

    Actores: Woody Harrelson

Comentarios 4
  • max - 04 julio, 2017

    Por favor si se puede y se consigue…podrían subir “Soldado Argentino solo Conocido por Dios”

    • dpelis

      Administrador
      - 04 julio, 2017

      cuando se obtenga

  • Sergio - 03 julio, 2017

    esos nuevos captchas box estan cada vez peor!!

    • dpelis

      Administrador
      - 04 julio, 2017

      lose, tabn los servidores cada vez son peor por el precio, todos nos quejamos.