Advertise here

Cars 3 (2017) Full 1080p Latino

4.140 vistas
1 estrella2 estrellas3 estrellas4 estrellas5 estrellas (2 votos, promedio: 4,00 de 5)
Cargando…

Información de Cars 3 (2017) Full 1080p Latino

Datos de la película

  • Calidad: Full 1080p
  • Audio: Español Latino AC3 5.1 BLURAY - Ingles DTS 5.1 BLURAY
  • Subtitulos: Español Latino PGS - Ingles PGS
  • Resolución: 1920X1080
  • Formato: MKV
  • Codec: H.264
  • Encoder: Dpelis
  • Mediainfo: Clic para Mostrar Datos Ver
  • Format                                   : Matroska
    Format version                           : Version 4 / Version 2
    File size                                : 4.69 GiB
    Duration                                 : 1 h 42 min
    Overall bit rate                         : 6 560 kb/s
    Movie name                               : dpeliculashdmega.org
    Encoded date                             : UTC 2017-11-05 19:44:47 / UTC 2017-11-05T16:53:45Z
    Writing application                      : mkvmerge v15.0.0 ('Duel with the Devil') 64-bit
    Writing library                          : libebml v1.3.5 + libmatroska v1.4.5 / Lavf57.7.2

    Video
    ID                                       : 1
    Format                                   : AVC
    Format/Info                              : Advanced Video Codec
    Format profile                           : [email protected]
    Format settings                          : CABAC / 4 Ref Frames
    Format settings, CABAC                   : Yes
    Format settings, RefFrames               : 4 frames
    Codec ID                                 : V_MPEG4/ISO/AVC
    Duration                                 : 1 h 42 min
    Bit rate                                 : 4 281 kb/s
    Width                                    : 1 920 pixels
    Height                                   : 1 080 pixels
    Display aspect ratio                     : 16:9
    Frame rate mode                          : Constant
    Frame rate                               : 23.976 (24000/1001) FPS
    Color space                              : YUV
    Chroma subsampling                       : 4:2:0
    Bit depth                                : 8 bits
    Scan type                                : Progressive
    Bits/(Pixel*Frame)                       : 0.086
    Stream size                              : 3.06 GiB (65%)
    Title                                    : Cars 3 (2017) Full 1080p Latino
    Writing library                          : x264 core 148 r2708 86b7198
    Encoding settings                        : cabac=1 / ref=4 / deblock=1:0:0 / analyse=0x3:0x133 / me=esa / subme=10 / psy=1 / psy_rd=1.00:0.00 / mixed_ref=1 / me_range=24 / chroma_me=1 / trellis=2 / 8x8dct=1 / cqm=0 / deadzone=21,11 / fast_pskip=1 / chroma_qp_offset=-2 / threads=34 / lookahead_threads=5 / sliced_threads=0 / nr=0 / decimate=1 / interlaced=0 / bluray_compat=0 / constrained_intra=0 / bframes=8 / b_pyramid=2 / b_adapt=2 / b_bias=0 / direct=3 / weightb=1 / open_gop=0 / weightp=2 / keyint=240 / keyint_min=24 / scenecut=40 / intra_refresh=0 / rc_lookahead=60 / rc=crf / mbtree=1 / crf=20.0 / qcomp=0.60 / qpmin=0 / qpmax=69 / qpstep=4 / vbv_maxrate=62500 / vbv_bufsize=78125 / crf_max=0.0 / nal_hrd=none / filler=0 / ip_ratio=1.40 / aq=1:1.00
    Language                                 : English
    Default                                  : Yes
    Forced                                   : No
    Color range                              : Limited
    Color primaries                          : BT.709
    Transfer characteristics                 : BT.709
    Matrix coefficients                      : BT.709
    Statistics Tags Issue                    : mkvmerge v15.0.0 ('Duel with the Devil') 64-bit 2017-11-05 19:44:47 / mkvmerge v15.0.0 ('Duel with the Devil') 64-bit 2017-11-05 19:44:47 / UTC 2017-11-05T16:53:45Z
    FromStats_BitRate                        : 4380289
    FromStats_Duration                       : 01:42:25.014000000
    FromStats_FrameCount                     : 147333
    FromStats_StreamSize                     : 3364617368

    Audio #1
    ID                                       : 2
    Format                                   : AC-3
    Format/Info                              : Audio Coding 3
    Format settings, Endianness              : Big
    Codec ID                                 : A_AC3
    Duration                                 : 1 h 42 min
    Bit rate mode                            : Constant
    Bit rate                                 : 640 kb/s
    Channel(s)                               : 6 channels
    Channel positions                        : Front: L C R, Side: L R, LFE
    Sampling rate                            : 48.0 kHz
    Frame rate                               : 31.250 FPS (1536 SPF)
    Bit depth                                : 16 bits
    Compression mode                         : Lossy
    Stream size                              : 469 MiB (10%)
    Title                                    : Latino-AC3
    Language                                 : Spanish
    Service kind                             : Complete Main
    Default                                  : Yes
    Forced                                   : No
    Statistics Tags Issue                    : mkvmerge v15.0.0 ('Duel with the Devil') 64-bit 2017-11-05 19:44:47 / mkvmerge v15.0.0 ('Duel with the Devil') 64-bit 2017-11-05 19:44:47 / UTC 2017-11-05T16:53:45Z
    FromStats_BitRate                        : 640000
    FromStats_Duration                       : 01:42:24.928000000
    FromStats_FrameCount                     : 192029
    FromStats_StreamSize                     : 491594240

    Audio #2
    ID                                       : 3
    Format                                   : DTS
    Format/Info                              : Digital Theater Systems
    Mode                                     : 16
    Format settings, Endianness              : Big
    Codec ID                                 : A_DTS
    Duration                                 : 1 h 42 min
    Bit rate mode                            : Constant
    Bit rate                                 : 1 509 kb/s
    Channel(s)                               : 6 channels
    Channel positions                        : Front: L C R, Side: L R, LFE
    Sampling rate                            : 48.0 kHz
    Frame rate                               : 93.750 FPS (512 SPF)
    Bit depth                                : 24 bits
    Compression mode                         : Lossy
    Stream size                              : 1.08 GiB (23%)
    Title                                    : Ingles-DTS
    Language                                 : English
    Default                                  : No
    Forced                                   : No
    Statistics Tags Issue                    : mkvmerge v15.0.0 ('Duel with the Devil') 64-bit 2017-11-05 19:44:47 / mkvmerge v15.0.0 ('Duel with the Devil') 64-bit 2017-11-05 19:44:47 / UTC 2017-11-05T16:53:45Z
    FromStats_BitRate                        : 1508999
    FromStats_Duration                       : 01:42:25.003000000
    FromStats_FrameCount                     : 576094
    FromStats_StreamSize                     : 1159101128

    Text #1
    ID                                       : 4
    Format                                   : PGS
    Muxing mode                              : zlib
    Codec ID                                 : S_HDMV/PGS
    Codec ID/Info                            : Picture based subtitle format used on BDs/HD-DVDs
    Title                                    : PGS
    Language                                 : English
    Default                                  : No
    Forced                                   : No
    Statistics Tags Issue                    : mkvmerge v15.0.0 ('Duel with the Devil') 64-bit 2017-11-05 19:44:47 / mkvmerge v15.0.0 ('Duel with the Devil') 64-bit 2017-11-05 19:44:47 / UTC 2017-11-05T16:53:45Z
    FromStats_BitRate                        : 48808
    FromStats_Duration                       : 01:40:48.009000000
    FromStats_FrameCount                     : 2852
    FromStats_StreamSize                     : 36899584

    Text #2
    ID                                       : 5
    Format                                   : PGS
    Muxing mode                              : zlib
    Codec ID                                 : S_HDMV/PGS
    Codec ID/Info                            : Picture based subtitle format used on BDs/HD-DVDs
    Title                                    : PGS
    Language                                 : Spanish
    Default                                  : No
    Forced                                   : No
    Statistics Tags Issue                    : mkvmerge v15.0.0 ('Duel with the Devil') 64-bit 2017-11-05 19:44:47 / mkvmerge v15.0.0 ('Duel with the Devil') 64-bit 2017-11-05 19:44:47 / UTC 2017-11-05T16:53:45Z
    FromStats_BitRate                        : 49429
    FromStats_Duration                       : 01:40:48.009000000
    FromStats_FrameCount                     : 2878
    FromStats_StreamSize                     : 37369133

    Menu
    00:00:00.000                             : :Chapter 1
    00:04:57.255                             : :Chapter 2
    00:10:54.988                             : :Chapter 3
    00:13:59.422                             : :Chapter 4
    00:18:15.344                             : :Chapter 5
    00:21:07.641                             : :Chapter 6
    00:34:08.880                             : :Chapter 7
    00:37:52.103                             : :Chapter 8
    00:42:44.812                             : :Chapter 9
    00:49:44.398                             : :Chapter 10
    00:53:57.735                             : :Chapter 11
    00:58:17.703                             : :Chapter 12
    00:59:27.522                             : :Chapter 13
    01:02:15.941                             : :Chapter 14
    01:06:35.533                             : :Chapter 15
    01:08:33.109                             : :Chapter 16
    01:15:48.127                             : :Chapter 17
    01:20:57.853                             : :Chapter 18
    01:29:42.419                             : :Chapter 19
    01:32:17.032                             : :Chapter 20
    01:34:00.093                             : :Chapter 21

  • Peso: 4.69 GiB

Sinopsis

Sorprendido por una nueva generación de corredores ultrarrápidos, el legendario Rayo McQueen (voz de Owen Wilson) queda relegado repentinamente del deporte que tanto ama. Para retomar su carrera, va a necesitar la ayuda de una joven mecánica de carreras, Cruz Ramírez, que tiene su propio plan para ganar, además de la inspiración del fallecido Fabuloso Hudson Hornet y un par de giros inesperados. ¡Y para probar que el nº95 no está ni mucho menos acabado, el campeón tendrá que poner a prueba su valía en el gran circuito de la Copa Pistón!ácil.

Ficha técnica

Video trailer de la película

Enlaces de descarga

Descargar Cars 3 (2017) Full 1080p Latino
Descargar

dpeliculas

Aportes de DPeliculasHDmega la pass es:dpeliculashdmega.org Aportes de CinemaniaHD la pass es:cinemaniahdd.com

Películas relacionadas

  • Toy Story (1995) Full 1080p Latino

    1995
    Toy Story (1995) Full 1080p Latino

    0.0 1 h 21 min 1995

    Los juguetes de Andy, un niño de 6 años, temen que haya llegado su hora y que un nuevo regalo de cumpleaños...

    Director: Roman Figun

    Género: Animación

    Actores: Wallace Shawn

  • Avatar (2009) EXTENDED Full 1080p Latino

    2009
    Avatar (2009) EXTENDED Full 1080p Latino

    0.0 2 h 58 min 2009

    Jake Sully, un ex-marine confinado a una silla de ruedas, es reclutado para viajar al planeta Pandora,...

    Director: James Cameron

    Género: Acción

    Actores: Zoe Saldana

  • 300: El origen de un imperio (2014) Full 1080p Latino

    2014
    300: El origen de un imperio (2014) Full 1080p Latino

    5.0 1 h 42 min 2014

    La historia se ambienta en el año 490 a.C., unos diez años antes de la batalla de las Termópilas....

    Director: Noam Murro

    Género: Acción

    Actores: Wayne Dalglish

  • Imparable (2010) Full 1080p Latino

    2010
    Imparable (2010) Full 1080p Latino

    5.0 1 h 38 min 2010

    El destino cruza las vidas de un veterano ingeniero y la de un joven conductor cuando ambos tengan que...

    Director: Tony Scott

    Género: Acción

    Actores: Toni Saladna

Comentarios 6
  • jorge - 22 noviembre, 2017

    hola no recibo ningun link para confirmar trato de incribirme y nada que llega ademas dice que mi cuenta no esta activada que puedo hacer?

    • dpelis

      Administrador
      - 23 noviembre, 2017

      para descargar no es necesario registrar

  • oswaldo - 07 noviembre, 2017

    hola no puedo entrar al link del paste publico (es en todas las pelis) me pide cargar otra pagina y espera 30seg pero no me carga la publicidad ya probe con varios navegadores debo instalar algun addon?? o es por la ubicacion (Bolivia) saludos

    • Dpelis2 pelis2

      Autor
      - 07 noviembre, 2017

      Hola lo que tambien puedes hacer es usar una extension de VPN para cambiar la Ip y luego probar otra vez
      Saludos

      • oswaldo - 07 noviembre, 2017

        era eso, con el tunnelbear no dio pero con chrome y hotspot shield dio tranquilo muchas gracias

  • Jonna - 05 noviembre, 2017

    Gracias por el Estreno! Saludos