Advertise here

Cars 3 (2017) 1080p Latino

1.335 vistas
1 estrella2 estrellas3 estrellas4 estrellas5 estrellas (1 votos, promedio: 3,00 de 5)
Cargando…

Información de Cars 3 (2017) 1080p Latino

Datos de la película

  • Calidad: 1080p
  • Audio: Español Latino AC3 5.1 BLURAY - Ingles AC3 5.1 BLURAY
  • Subtitulos: Español Latino PGS
  • Resolución: 1920X804
  • Formato: MKV
  • Codec: H.264
  • Encoder: Dpelis
  • Mediainfo: Clic para Mostrar Datos Ver
  • Format                                   : Matroska
    Format version                           : Version 4 / Version 2
    File size                                : 3.04 GiB
    Duration                                 : 1 h 42 min
    Overall bit rate                         : 4 244 kb/s
    Movie name                               : dpeliculashdmega.org
    Encoded date                             : UTC 2017-11-03 16:34:22 / UTC 2017-11-03T08:06:18Z
    Writing application                      : mkvmerge v15.0.0 ('Duel with the Devil') 64-bit
    Writing library                          : libebml v1.3.5 + libmatroska v1.4.5 / Lavf57.7.2

    Video
    ID                                       : 1
    Format                                   : AVC
    Format/Info                              : Advanced Video Codec
    Format profile                           : [email protected]
    Format settings                          : CABAC / 5 Ref Frames
    Format settings, CABAC                   : Yes
    Format settings, RefFrames               : 5 frames
    Codec ID                                 : V_MPEG4/ISO/AVC
    Duration                                 : 1 h 42 min
    Bit rate                                 : 3 500 kb/s
    Width                                    : 1 920 pixels
    Height                                   : 804 pixels
    Display aspect ratio                     : 2.40:1
    Frame rate mode                          : Constant
    Frame rate                               : 23.976 (24000/1001) FPS
    Color space                              : YUV
    Chroma subsampling                       : 4:2:0
    Bit depth                                : 8 bits
    Scan type                                : Progressive
    Bits/(Pixel*Frame)                       : 0.095
    Stream size                              : 2.43 GiB (80%)
    Title                                    : Cars 3 (2017) 1080p Latino
    Writing library                          : x264 core 148 r2708 86b7198
    Encoding settings                        : cabac=1 / ref=5 / deblock=1:0:0 / analyse=0x3:0x113 / me=umh / subme=8 / psy=1 / psy_rd=1.00:0.00 / mixed_ref=1 / me_range=16 / chroma_me=1 / trellis=1 / 8x8dct=1 / cqm=0 / deadzone=21,11 / fast_pskip=1 / chroma_qp_offset=-2 / threads=25 / lookahead_threads=4 / sliced_threads=0 / nr=0 / decimate=1 / interlaced=0 / bluray_compat=0 / constrained_intra=0 / bframes=3 / b_pyramid=2 / b_adapt=2 / b_bias=0 / direct=3 / weightb=1 / open_gop=0 / weightp=2 / keyint=240 / keyint_min=24 / scenecut=40 / intra_refresh=0 / rc_lookahead=50 / rc=abr / mbtree=1 / bitrate=3500 / ratetol=1.0 / qcomp=0.60 / qpmin=0 / qpmax=69 / qpstep=4 / vbv_maxrate=62500 / vbv_bufsize=78125 / nal_hrd=none / filler=0 / ip_ratio=1.40 / aq=1:1.00
    Language                                 : English
    Default                                  : Yes
    Forced                                   : No
    Color range                              : Limited
    Color primaries                          : BT.709
    Transfer characteristics                 : BT.709
    Matrix coefficients                      : BT.709
    Statistics Tags Issue                    : mkvmerge v15.0.0 ('Duel with the Devil') 64-bit 2017-11-03 16:34:22 / mkvmerge v15.0.0 ('Duel with the Devil') 64-bit 2017-11-03 16:34:22 / UTC 2017-11-03T08:06:18Z
    FromStats_BitRate                        : 3460137
    FromStats_Duration                       : 01:42:24.972000000
    FromStats_FrameCount                     : 147332
    FromStats_StreamSize                     : 2657805981

    Audio #1
    ID                                       : 2
    Format                                   : AC-3
    Format/Info                              : Audio Coding 3
    Format settings, Endianness              : Big
    Codec ID                                 : A_AC3
    Duration                                 : 1 h 42 min
    Bit rate mode                            : Constant
    Bit rate                                 : 384 kb/s
    Channel(s)                               : 6 channels
    Channel positions                        : Front: L C R, Side: L R, LFE
    Sampling rate                            : 48.0 kHz
    Frame rate                               : 31.250 FPS (1536 SPF)
    Bit depth                                : 16 bits
    Compression mode                         : Lossy
    Delay relative to video                  : -5 ms
    Stream size                              : 281 MiB (9%)
    Title                                    : Latino-AC3
    Language                                 : Spanish
    Service kind                             : Complete Main
    Default                                  : Yes
    Forced                                   : No
    Statistics Tags Issue                    : mkvmerge v15.0.0 ('Duel with the Devil') 64-bit 2017-11-03 16:34:22 / mkvmerge v15.0.0 ('Duel with the Devil') 64-bit 2017-11-03 16:34:22 / UTC 2017-11-03T08:06:18Z
    FromStats_BitRate                        : 384000
    FromStats_Duration                       : 01:42:24.896000000
    FromStats_FrameCount                     : 192028
    FromStats_StreamSize                     : 294955008

    Audio #2
    ID                                       : 3
    Format                                   : AC-3
    Format/Info                              : Audio Coding 3
    Format settings, Endianness              : Big
    Codec ID                                 : A_AC3
    Duration                                 : 1 h 42 min
    Bit rate mode                            : Constant
    Bit rate                                 : 384 kb/s
    Channel(s)                               : 6 channels
    Channel positions                        : Front: L C R, Side: L R, LFE
    Sampling rate                            : 48.0 kHz
    Frame rate                               : 31.250 FPS (1536 SPF)
    Bit depth                                : 16 bits
    Compression mode                         : Lossy
    Delay relative to video                  : -5 ms
    Stream size                              : 281 MiB (9%)
    Title                                    : Ingles-AC3
    Language                                 : English
    Service kind                             : Complete Main
    Default                                  : No
    Forced                                   : No
    Statistics Tags Issue                    : mkvmerge v15.0.0 ('Duel with the Devil') 64-bit 2017-11-03 16:34:22 / mkvmerge v15.0.0 ('Duel with the Devil') 64-bit 2017-11-03 16:34:22 / UTC 2017-11-03T08:06:18Z
    FromStats_BitRate                        : 384000
    FromStats_Duration                       : 01:42:24.992000000
    FromStats_FrameCount                     : 192031
    FromStats_StreamSize                     : 294959616

    Text
    ID                                       : 4
    Format                                   : PGS
    Muxing mode                              : zlib
    Codec ID                                 : S_HDMV/PGS
    Codec ID/Info                            : Picture based subtitle format used on BDs/HD-DVDs
    Language                                 : Spanish
    Default                                  : No
    Forced                                   : No
    Statistics Tags Issue                    : mkvmerge v15.0.0 ('Duel with the Devil') 64-bit 2017-11-03 16:34:22 / mkvmerge v15.0.0 ('Duel with the Devil') 64-bit 2017-11-03 16:34:22 / UTC 2017-11-03T08:06:18Z
    FromStats_BitRate                        : 49429
    FromStats_Duration                       : 01:40:48.009000000
    FromStats_FrameCount                     : 2878
    FromStats_StreamSize                     : 37369133

    Menu
    00:00:00.000                             : :Champ McQueen
    00:04:57.255                             : :Storm Front
    00:10:54.988                             : :Crash
    00:13:59.630                             : :Wake-up Call
    00:18:15.344                             : :Phone Call
    00:21:07.641                             : :Modern Training
    00:34:08.880                             : :Deal
    00:37:52.228                             : :Beach
    00:42:44.812                             : :Crazy Eight
    00:49:44.440                             : :Cruz's Dream
    00:53:57.735                             : :Facetime
    00:58:17.744                             : :Olive Branch
    00:59:27.522                             : :Smokey
    01:02:15.941                             : :Hud's Win
    01:06:35.533                             : :It's Over
    01:08:33.109                             : :Old School Training
    01:15:48.127                             : :Florida Arrival
    01:20:57.853                             : :Pit Stop
    01:29:42.460                             : :Victory Lane
    01:32:17.032                             : :Epilogue
    01:34:00.135                             : :End Credits

  • Peso: 3.04 GiB

Sinopsis

Rayo McQueen sigue siendo el mejor coche de carreras del mundo, pero ahora que es uno de los más veteranos del circuito, debe demostrar a todo el mundo que aún puede ganar una gran carrera y que no debería jubilarse. En esta ocasión, el famoso bólido de carreras tendrá que enfrentarse a una nueva generación de corredores más jóvenes, potentes y veloces, que amenaza con cambiar el deporte de su vida. Entre ellos está el competitivo y revolucionario Jackson Storm, una de las nuevas promesas del automovilismo que no se lo pondrá nada fácil.

Para lograr su objetivo y alcanzar el podio, contará con una nueva entrenadora hispana, Cruz Ramírez, una joven y avispada mecánica de carreras de color amarillo que ayudará al protagonista en el duro mundo de la competición. También acudirá a Sterling, un coche encantador y un genio del ‘marketing’ que compra el centro de carreras Rust-Eze y lo transforma en un centro de entrenamiento. Él se convertirá en el nuevo patrocinador de Rayo McQueen, que confiará en el ejecutivo para catapultar su carrera y aprender a jugar con las normas de las competencias más modernas. Junto a McQueen también estarán sus amigos de siempre de Radiator Springs, como la grúa Mater, su novia Sally y el dueño del taller de coches Ramone. La carrera será más dura que nunca para Rayo, quien tendrá que probar su valía en el gran circuito de la Copa Piston, que transcurrirá por históricos lugares de toda América.

Ficha técnica

Video trailer de la película

Enlaces de descarga

Descargar Cars 3 (2017) 1080p Latino
Descargar

dpeliculas

Aportes de DPeliculasHDmega la pass es:dpeliculashdmega.org Aportes de CinemaniaHD la pass es:cinemaniahdd.com
Guardado en : Animación , Aventura , Comedia , Familia

Películas relacionadas

  • Guardianes de altamar (2006) Full 1080p Latino

    2006
    Guardianes de altamar (2006) Full 1080p Latino

    0.0 2h 16m 2006

    Después de perder a su equipo en un trágico accidente, Ben Randall, un legendario nadador de rescate,...

    Director: Andrew Davis

    Género: Acción

    Actores: Travis Willingham

  • Locos por las nueces 2 (2017) 1080p Latino

    2017
    Locos por las nueces 2 (2017) 1080p Latino

    0.0 1h 35m 2017

    Continuación de Operación cacahuete en la que conoceremos las nuevas aventuras de la malhumorada ardilla...

    Director: Callan Brunker

    Género: Animación

    Actores: Will Arnett

  • The Guardian Brothers (2016) WEB-DL 1080p Latino

    2016
    The Guardian Brothers (2016) WEB-DL 1080p Latino

    2.0 1 h 20 min 2016

    Hay una crisis en el mundo espiritual de China: ¡los humanos ya no creen en los dioses! Un Dios de la...

    Director: Gary Wang

    Género: Animación

    Actores: Xiaoxing Yi

  • Lo que de verdad importa (2017) Full 1080p Latino

    2017
    Lo que de verdad importa (2017) Full 1080p Latino

    0.0 1 h 48 min 2017

    Alex vive en Inglaterrra, trabaja arreglando aparatos eléctricos en una empresa que no va bien económicamente,...

    Director: Paco Arango

    Género: Castellano

    Actores: Suresh John

  • Pilgrimage (2017) WEB-DL 1080p Latino

    2017
    Pilgrimage (2017) WEB-DL 1080p Latino

    0.0 1 h 36 min 2017

    “Roma ha hablado”, con esa frase unos monjes cristianos deben comenzar la peregrinación hacia Roma...

    Director: Sophie Higel

    Género: Acción

    Actores: Tristan McConnell

Comentarios 5