Advertise here

Cars (2006) Full 1080p Latino

499 vistas
1 estrella2 estrellas3 estrellas4 estrellas5 estrellas (2 votos, promedio: 4,00 de 5)
Cargando…

Información de Cars (2006) Full 1080p Latino

Datos de la película

  • Calidad: Full 1080p
  • Audio: Español Latino AC3 5.1 BLURAY - Ingles AC3 5.1 BLURAY
  • Subtitulos: Español Latino PGS - Ingles PGS
  • Resolución: 1920X1080
  • Formato: MKV
  • Codec: H.264
  • Encoder: Dpelis
  • Mediainfo: Clic para Mostrar Datos Ver
  • Format                                   : Matroska
    Format version                           : Version 4 / Version 2
    File size                                : 5.30 GiB
    Duration                                 : 1 h 56 min
    Overall bit rate                         : 6 509 kb/s
    Movie name                               : dpeliculashdmega.org
    Encoded date                             : UTC 2017-11-10 04:19:40 / UTC 2017-11-09T17:39:14Z
    Writing application                      : mkvmerge v15.0.0 ('Duel with the Devil') 64-bit
    Writing library                          : libebml v1.3.5 + libmatroska v1.4.5 / Lavf57.7.2

    Video
    ID                                       : 1
    Format                                   : AVC
    Format/Info                              : Advanced Video Codec
    Format profile                           : [email protected]
    Format settings                          : CABAC / 4 Ref Frames
    Format settings, CABAC                   : Yes
    Format settings, RefFrames               : 4 frames
    Codec ID                                 : V_MPEG4/ISO/AVC
    Duration                                 : 1 h 56 min
    Bit rate                                 : 5 099 kb/s
    Width                                    : 1 920 pixels
    Height                                   : 1 080 pixels
    Display aspect ratio                     : 16:9
    Frame rate mode                          : Constant
    Frame rate                               : 23.976 (24000/1001) FPS
    Color space                              : YUV
    Chroma subsampling                       : 4:2:0
    Bit depth                                : 8 bits
    Scan type                                : Progressive
    Bits/(Pixel*Frame)                       : 0.103
    Stream size                              : 4.15 GiB (78%)
    Title                                    : Cars (2006) Full 1080p Latino
    Writing library                          : x264 core 148 r2708 86b7198
    Encoding settings                        : cabac=1 / ref=4 / deblock=1:0:0 / analyse=0x3:0x133 / me=esa / subme=10 / psy=1 / psy_rd=1.00:0.00 / mixed_ref=1 / me_range=24 / chroma_me=1 / trellis=2 / 8x8dct=1 / cqm=0 / deadzone=21,11 / fast_pskip=1 / chroma_qp_offset=-2 / threads=34 / lookahead_threads=5 / sliced_threads=0 / nr=0 / decimate=1 / interlaced=0 / bluray_compat=0 / constrained_intra=0 / bframes=8 / b_pyramid=2 / b_adapt=2 / b_bias=0 / direct=3 / weightb=1 / open_gop=0 / weightp=2 / keyint=240 / keyint_min=24 / scenecut=40 / intra_refresh=0 / rc_lookahead=60 / rc=crf / mbtree=1 / crf=20.0 / qcomp=0.60 / qpmin=0 / qpmax=69 / qpstep=4 / vbv_maxrate=62500 / vbv_bufsize=78125 / crf_max=0.0 / nal_hrd=none / filler=0 / ip_ratio=1.40 / aq=1:1.00
    Language                                 : English
    Default                                  : Yes
    Forced                                   : No
    Color range                              : Limited
    Color primaries                          : BT.709
    Transfer characteristics                 : BT.709
    Matrix coefficients                      : BT.709
    Statistics Tags Issue                    : mkvmerge v15.0.0 ('Duel with the Devil') 64-bit 2017-11-10 04:19:40 / mkvmerge v15.0.0 ('Duel with the Devil') 64-bit 2017-11-10 04:19:40 / UTC 2017-11-09T17:39:14Z
    FromStats_BitRate                        : 5206193
    FromStats_Duration                       : 01:56:35.989000000
    FromStats_FrameCount                     : 167736
    FromStats_StreamSize                     : 4552809228

    Audio #1
    ID                                       : 2
    Format                                   : AC-3
    Format/Info                              : Audio Coding 3
    Format settings, Endianness              : Big
    Codec ID                                 : A_AC3
    Duration                                 : 1 h 56 min
    Bit rate mode                            : Constant
    Bit rate                                 : 640 kb/s
    Channel(s)                               : 6 channels
    Channel positions                        : Front: L C R, Side: L R, LFE
    Sampling rate                            : 48.0 kHz
    Frame rate                               : 31.250 FPS (1536 SPF)
    Bit depth                                : 16 bits
    Compression mode                         : Lossy
    Stream size                              : 534 MiB (10%)
    Title                                    : Latino-AC3
    Language                                 : Spanish
    Service kind                             : Complete Main
    Default                                  : Yes
    Forced                                   : No
    Statistics Tags Issue                    : mkvmerge v15.0.0 ('Duel with the Devil') 64-bit 2017-11-10 04:19:40 / mkvmerge v15.0.0 ('Duel with the Devil') 64-bit 2017-11-10 04:19:40 / UTC 2017-11-09T17:39:14Z
    FromStats_BitRate                        : 640000
    FromStats_Duration                       : 01:56:36.000000000
    FromStats_FrameCount                     : 218625
    FromStats_StreamSize                     : 559680000

    Audio #2
    ID                                       : 3
    Format                                   : AC-3
    Format/Info                              : Audio Coding 3
    Format settings, Endianness              : Big
    Codec ID                                 : A_AC3
    Duration                                 : 1 h 56 min
    Bit rate mode                            : Constant
    Bit rate                                 : 640 kb/s
    Channel(s)                               : 6 channels
    Channel positions                        : Front: L C R, Side: L R, LFE
    Sampling rate                            : 48.0 kHz
    Frame rate                               : 31.250 FPS (1536 SPF)
    Bit depth                                : 16 bits
    Compression mode                         : Lossy
    Stream size                              : 534 MiB (10%)
    Title                                    : Ingles-AC3
    Language                                 : English
    Service kind                             : Complete Main
    Default                                  : No
    Forced                                   : No
    Statistics Tags Issue                    : mkvmerge v15.0.0 ('Duel with the Devil') 64-bit 2017-11-10 04:19:40 / mkvmerge v15.0.0 ('Duel with the Devil') 64-bit 2017-11-10 04:19:40 / UTC 2017-11-09T17:39:14Z
    FromStats_BitRate                        : 640000
    FromStats_Duration                       : 01:56:36.000000000
    FromStats_FrameCount                     : 218625
    FromStats_StreamSize                     : 559680000

    Text #1
    ID                                       : 4
    Format                                   : PGS
    Muxing mode                              : zlib
    Codec ID                                 : S_HDMV/PGS
    Codec ID/Info                            : Picture based subtitle format used on BDs/HD-DVDs
    Language                                 : English
    Default                                  : No
    Forced                                   : No
    Statistics Tags Issue                    : mkvmerge v15.0.0 ('Duel with the Devil') 64-bit 2017-11-10 04:19:40 / mkvmerge v15.0.0 ('Duel with the Devil') 64-bit 2017-11-10 04:19:40 / UTC 2017-11-09T17:39:14Z
    FromStats_BitRate                        : 28495
    FromStats_Duration                       : 01:55:09.403000000
    FromStats_FrameCount                     : 2880
    FromStats_StreamSize                     : 24610755

    Text #2
    ID                                       : 5
    Format                                   : PGS
    Muxing mode                              : zlib
    Codec ID                                 : S_HDMV/PGS
    Codec ID/Info                            : Picture based subtitle format used on BDs/HD-DVDs
    Language                                 : Spanish
    Default                                  : No
    Forced                                   : No
    Statistics Tags Issue                    : mkvmerge v15.0.0 ('Duel with the Devil') 64-bit 2017-11-10 04:19:40 / mkvmerge v15.0.0 ('Duel with the Devil') 64-bit 2017-11-10 04:19:40 / UTC 2017-11-09T17:39:14Z
    FromStats_BitRate                        : 35600
    FromStats_Duration                       : 01:55:09.401000000
    FromStats_FrameCount                     : 2806
    FromStats_StreamSize                     : 30747453

    Menu
    00:00:00.000                             : :Dinoco 400
    00:09:27.692                             : :Victory Lane
    00:13:38.109                             : :Rust-Eze
    00:16:09.135                             : :"Life Is a Highway"
    00:19:42.765                             : :Lost
    00:24:23.170                             : :Into Town
    00:27:16.844                             : :Where's Mcqueen?
    00:28:02.055                             : :The Impound
    00:29:31.436                             : :Traffic Court
    00:33:47.567                             : :Bessie
    00:35:43.558                             : :Customers!
    00:41:40.456                             : :Doc's Challenge
    00:45:45.868                             : :A New Road
    00:48:30.324                             : :Turn Right to Go Left
    00:50:28.776                             : :Back to Work
    00:54:30.476                             : :Tractor Tipping
    00:57:37.496                             : :Backwards Driving
    01:01:19.050                             : :Goodnight
    01:02:48.390                             : :Doc's Piston Cups
    01:05:32.554                             : :Breakfast at Flo's
    01:07:32.882                             : :Drive with Sally
    01:09:39.092                             : :Wheel Well
    01:11:17.023                             : :"Our Town"
    01:14:51.237                             : :Stampede
    01:15:47.585                             : :Doc Races
    01:20:03.924                             : :He's Gone
    01:22:11.468                             : :A New Customer
    01:24:48.584                             : :Cruisin'
    01:27:21.528                             : :Mcqueen Is Found
    01:32:26.791                             : :California Race
    01:46:07.403                             : :Back on the Map
    01:48:21.620                             : :Epilogue

  • Peso: 5.30 GiB

Sinopsis

El aspirante a campeón de carreras Rayo McQueen está sobre la vía rápida al éxito, la fama y todo lo que él había soñado, hasta que por error toma un desvío inesperado en la polvorienta y solitaria Ruta 66. Su actitud arrogante se desvanece cuando llega a una pequeña comunidad olvidada que le enseña las cosas importantes de la vida que había olvidado.

Ficha técnica

Video trailer de la película

Enlaces de descarga

Descargar Cars (2006) Full 1080p Latino
Descargar

dpeliculas

Aportes de DPeliculasHDmega la pass es:dpeliculashdmega.org Aportes de CinemaniaHD la pass es:cinemaniahdd.com

Películas relacionadas

  • La autopsia de Jane Doe (2016) Full 1080p Latino

    2016
    La autopsia de Jane Doe (2016) Full 1080p Latino

    0.0 1h 39m 2016

    En una pequeño pueblo de Virginia aparece el cuerpo desnudo y semienterrado de una hermosa joven, misteriosa...

    Director: Sheila McNaught

    Género: FULL 1080p Pesadas

    Actores: Parker Sawyers

  • Guardianes de altamar (2006) Full 1080p Latino

    2006
    Guardianes de altamar (2006) Full 1080p Latino

    0.0 2h 16m 2006

    Después de perder a su equipo en un trágico accidente, Ben Randall, un legendario nadador de rescate,...

    Director: Andrew Davis

    Género: Acción

    Actores: Travis Willingham

  • Locos por las nueces 2 (2017) 1080p Latino

    2017
    Locos por las nueces 2 (2017) 1080p Latino

    0.0 1h 35m 2017

    Continuación de Operación cacahuete en la que conoceremos las nuevas aventuras de la malhumorada ardilla...

    Director: Callan Brunker

    Género: Animación

    Actores: Will Arnett

Comentarios 2
  • iDeztrukxion - 15 noviembre, 2017

    disculpa, subirás la 2 de cars?

    • Dpelis2 pelis2

      Autor
      - 15 noviembre, 2017

      en unos dias mas