Caroline And The Magic Potion (2015) WEBDL 1080p Latino

742 vistas
1 estrella2 estrellas3 estrellas4 estrellas5 estrellas (Ninguna valoración todavía)
Cargando…

Información de Caroline And The Magic Potion (2015) WEBDL 1080p Latino

Datos de la película

  • Calidad: WEBDL
  • Audio: Español Latino AC3 2.0 iTunes
  • Subtitulos: No
  • Resolución: 1912x1032p
  • Formato: MKV
  • Codec: H.264
  • Encoder: Dpelis
  • Mediainfo: Ver Ver
  • Caroline and the Magic Potion (2015) WEBDL 1080p Latino.mkv
    Format                      : Matroska
    Format version              : Version 4 / Version 2
    File size                   : 2.94 GiB
    Duration                    : 1 h 18 min
    Overall bit rate            : 5 387 kb/s
    Movie name                  : DPeliculasHDMega.ORG
    Encoded date                : UTC 2017-09-08 13:00:05
    Writing application         : mkvmerge v10.0.0 ('To Drown In You') 64bit
    Writing library             : libebml v1.3.4 + libmatroska v1.4.5

    Video
    ID                          : 1
    Format                      : AVC
    Format/Info                 : Advanced Video Codec
    Format profile              : [email protected]
    Format settings, CABAC      : Yes
    Format settings, ReFrames   : 4 frames
    Codec ID                    : V_MPEG4/ISO/AVC
    Duration                    : 1 h 18 min
    Bit rate                    : 5 129 kb/s
    Width                       : 1 912 pixels
    Height                      : 1 032 pixels
    Display aspect ratio        : 1.85:1
    Frame rate mode             : Constant
    Frame rate                  : 24.000 FPS
    Color space                 : YUV
    Chroma subsampling          : 4:2:0
    Bit depth                   : 8 bits
    Scan type                   : Progressive
    Bits/(Pixel*Frame)          : 0.108
    Stream size                 : 2.80 GiB (95%)
    Language                    : English
    Default                     : Yes
    Forced                      : No
    Color range                 : Limited
    Color primaries             : BT.709
    Transfer characteristics    : BT.709
    Matrix coefficients         : BT.709

    Audio
    ID                          : 2
    Format                      : AC-3
    Format/Info                 : Audio Coding 3
    Format settings, Endianness : Big
    Codec ID                    : A_AC3
    Duration                    : 1 h 18 min
    Bit rate mode               : Constant
    Bit rate                    : 256 kb/s
    Channel(s)                  : 2 channels
    Channel positions           : Front: L R
    Sampling rate               : 48.0 kHz
    Frame rate                  : 31.250 FPS (1536 spf)
    Bit depth                   : 16 bits
    Compression mode            : Lossy
    Stream size                 : 143 MiB (5%)
    Language                    : Spanish
    Service kind                : Complete Main
    Default                     : Yes
    Forced                      : No

    Menu
    00:00:00.000                : en:Capítulo 1
    00:10:13.125                : en:Capítulo 2
    00:20:31.083                : en:Capítulo 3
    00:31:06.249                : en:Capítulo 4
    00:40:52.082                : en:Capítulo 5
    00:51:34.623                : en:Capítulo 6
    01:01:30.664                : en:Capítulo 7
    01:09:02.580                : en:Capítulo 8

  • Peso: 2.94 GB

Sinopsis

Caroline sueña con una vida llena de aventura. Entonces, un día, mientras vivía con su sanadora abuela y el incómodo gato Mus, Caroline tiene su oportunidad. Mientras mira a través de las pociones curativas de su abuela, Caroline tropieza con una fórmula mágica que la hará volar. Saltando de emoción, Caroline convierte un paraguas ordinario en su propia escoba de vuelo personal. Pero la magia no siempre se utiliza para siempre y cuando el líder malvado de una empresa de fabricación se entera de la poción mágica, secuestra a la abuela de Caroline para robar la receta. Cuando Caroline se entera, salta a la acción y comienza la aventura de su vida para rescatar a su abuela.

Ficha técnica

  • Titulo original: Caroline And The Magic Potion
  • Fecha de lanzamiento: 22-09-2015
  • Género: Animación
  • Puntuación: 0.0 0 votos
  • Duración:
    1h 18m

Imágenes, Capturas de la película

Video trailer de la película

Enlaces de descarga

Descargar Caroline And The Magic Potion (2015) WEBDL 1080p Latino
Descargar

dpeliculas

Aportes de DPeliculasHDmega la pass es:dpeliculashdmega.org Aportes de CinemaniaHD la pass es:cinemaniahdd.com
Guardado en : Animación

PelícuDelas relacionadas

  • Enredados otra vez (2017) WEBDL 1080p Latino

    2017
    Enredados otra vez (2017) WEBDL 1080p Latino

    5.0 0h 55m 2017

    Descargar Pelicula Tangled: Before Ever After Calidad WEBDL Latino¡Mientras Rapunzel se prepara para...

    Director: Tom Caulfield

    Género: Animación

    Actores: Zachary Levi

  • Shopkins Chef Club (2016) 1080p WEB-DL Latino

    2016
    Shopkins Chef Club (2016) 1080p WEB-DL Latino

    0.0 0h 0m 2016

    La vida nunca es ordinaria en Shopville, pero las cosas están a punto de obtener un poco extraordinario...

    Director: Raymond McGrath

    Género: Animación

    Actores: Marieve Herington

Comentarios 0