Caracortada (1983) 1080p BluRay x265 HEVC DTS Dual Latino

808 vistas
1 estrella2 estrellas3 estrellas4 estrellas5 estrellas (Ninguna valoración todavía)
Cargando…

Información de Caracortada (1983) 1080p BluRay x265 HEVC DTS Dual Latino

Datos de la película

  • Calidad: Full 1080p
  • Audio: Español Latino DTS 5.1 BLURAY - Ingles DTS 5.1 BLURAY
  • Subtitulos: Español Latino PGS
  • Resolución: 1920x1080p
  • Formato: MKV
  • Codec: H.265
  • Encoder: SebastianHDx
  • Mediainfo: Ver Ver
  • Caracortada (1983) 1080p BluRay x265 HEVC DTS Dual Latino.mkv
    Format                      : Matroska
    Format version              : Version 4 / Version 2
    File size                   : 11.0 GiB
    Duration                    : 2 h 50 min
    Overall bit rate            : 9 248 kb/s
    Encoded date                : UTC 2017-05-15 13:38:09
    Writing application         : mkvmerge v10.0.0 ('To Drown In You') 64bit
    Writing library             : libebml v1.3.4 + libmatroska v1.4.5

    Video
    ID                          : 1
    Format                      : HEVC
    Format/Info                 : High Efficiency Video Coding
    Format profile              : [email protected]@Main
    Codec ID                    : V_MPEGH/ISO/HEVC
    Duration                    : 2 h 50 min
    Bit rate                    : 7 265 kb/s
    Width                       : 1 920 pixels
    Height                      : 1 080 pixels
    Display aspect ratio        : 16:9
    Frame rate mode             : Constant
    Frame rate                  : 23.976 (24000/1001) FPS
    Color space                 : YUV
    Chroma subsampling          : 4:2:0
    Bit depth                   : 8 bits
    Bits/(Pixel*Frame)          : 0.146
    Stream size                 : 8.63 GiB (79%)
    Writing library             : x265 2.1:[Windows][GCC 5.3.1][64 bit] 8bit
    Encoding settings           : wpp / ctu=64 / min-cu-size=8 / max-tu-size=32 / tu-intra-depth=1 / tu-inter-depth=1 / me=3 / subme=3 / merange=57 / rect / no-amp / max-merge=3 / temporal-mvp / no-early-skip / rskip / rdpenalty=0 / no-tskip / no-tskip-fast / strong-intra-smoothing / no-lossless / no-cu-lossless / no-constrained-intra / no-fast-intra / open-gop / no-temporal-layers / interlace=0 / keyint=240 / min-keyint=24 / scenecut=40 / rc-lookahead=25 / lookahead-slices=4 / bframes=4 / bframe-bias=0 / b-adapt=2 / ref=4 / limit-refs=3 / limit-modes / weightp / no-weightb / aq-mode=1 / qg-size=32 / aq-strength=1.00 / cbqpoffs=0 / crqpoffs=0 / rd=4 / psy-rd=2.00 / rdoq-level=2 / psy-rdoq=1.00 / log2-max-poc-lsb=8 / no-rd-refine / signhide / deblock=0:0 / sao / no-sao-non-deblock / b-pyramid / cutree / no-intra-refresh / rc=crf / crf=20.0 / qcomp=0.60 / qpmin=0 / qpmax=69 / qpstep=4 / ipratio=1.40 / pbratio=1.30
    Default                     : Yes
    Forced                      : No
    Color range                 : Limited
    Color primaries             : BT.709
    Transfer characteristics    : BT.709
    Matrix coefficients         : BT.709

    Audio #1
    ID                          : 2
    Format                      : DTS
    Format/Info                 : Digital Theater Systems
    Mode                        : 16
    Format settings, Endianness : Big
    Codec ID                    : A_DTS
    Duration                    : 2 h 50 min
    Bit rate mode               : Constant
    Bit rate                    : 447 kb/s
    Channel(s)                  : 2 channels
    Channel positions           : Front: L R
    Sampling rate               : 48.0 kHz
    Frame rate                  : 93.750 FPS (512 spf)
    Bit depth                   : 24 bits
    Compression mode            : Lossy
    Stream size                 : 544 MiB (5%)
    Title                       : Español Latino DTS 2.0 [447 Kbps]
    Language                    : Spanish
    Default                     : Yes
    Forced                      : No

    Audio #2
    ID                          : 3
    Format                      : DTS
    Format/Info                 : Digital Theater Systems
    Mode                        : 16
    Format settings, Endianness : Big
    Codec ID                    : A_DTS
    Duration                    : 2 h 50 min
    Bit rate mode               : Constant
    Bit rate                    : 1 509 kb/s
    Channel(s)                  : 6 channels
    Channel positions           : Front: L C R, Side: L R, LFE
    Sampling rate               : 48.0 kHz
    Frame rate                  : 93.750 FPS (512 spf)
    Bit depth                   : 24 bits
    Compression mode            : Lossy
    Stream size                 : 1.79 GiB (16%)
    Title                       : Inglés DTS 5.1 [1509 Kbps]
    Language                    : English
    Default                     : No
    Forced                      : No

    Text #1
    ID                          : 4
    Format                      : PGS
    Codec ID                    : S_HDMV/PGS
    Codec ID/Info               : Picture based subtitle format used on BDs/HD-DVDs
    Duration                    : 1 h 45 min
    Bit rate                    : 128 b/s
    Count of elements           : 11
    Stream size                 : 98.8 KiB (0%)
    Title                       : Subtítulos Español Latino - Forzados [PGS]
    Language                    : Spanish
    Default                     : No
    Forced                      : Yes

    Text #2
    ID                          : 5
    Format                      : PGS
    Codec ID                    : S_HDMV/PGS
    Codec ID/Info               : Picture based subtitle format used on BDs/HD-DVDs
    Duration                    : 2 h 43 min
    Bit rate                    : 25.3 kb/s
    Count of elements           : 3743
    Stream size                 : 29.7 MiB (0%)
    Title                       : Subtítulos Español Latino [PGS]
    Language                    : Spanish
    Default                     : No
    Forced                      : No

    Menu
    00:00:00.000                : :Chapter 1
    00:08:11.574                : :Chapter 2
    00:10:55.238                : :Chapter 3
    00:13:40.194                : :Chapter 4
    00:15:43.025                : :Chapter 5
    00:20:58.299                : :Chapter 6
    00:29:51.290                : :Chapter 7
    00:33:09.362                : :Chapter 8
    00:34:42.539                : :Chapter 9
    00:43:13.174                : :Chapter 10
    00:46:46.053                : :Chapter 11
    00:50:45.251                : :Chapter 12
    00:59:02.706                : :Chapter 13
    01:04:15.643                : :Chapter 14
    01:08:20.471                : :Chapter 15
    01:12:57.540                : :Chapter 16
    01:17:17.842                : :Chapter 17
    01:23:33.133                : :Chapter 18
    01:28:48.323                : :Chapter 19
    01:33:44.244                : :Chapter 20
    01:43:31.497                : :Chapter 21
    01:47:01.707                : :Chapter 22
    01:51:48.410                : :Chapter 23
    01:57:19.991                : :Chapter 24
    02:02:43.106                : :Chapter 25
    02:07:08.204                : :Chapter 26
    02:13:58.405                : :Chapter 27
    02:16:04.448                : :Chapter 28
    02:21:46.081                : :Chapter 29
    02:24:22.779                : :Chapter 30
    02:30:37.862                : :Chapter 31
    02:35:14.889                : :Chapter 32
    02:37:33.069                : :Chapter 33
    02:40:04.303                : :Chapter 34
    02:43:21.000                : :Chapter 35

  • Peso: 11.0 GB

Sinopsis

Un emigrante cubano frío y sanguinario, Tony Montana, llega de Cuba para instalarse en Miami, donde se propone hacerse con un nombre dentro del crimen organizado de Florida. Junto a su amigo, Manny Rivera, inicia una ascendente carrera delictiva.

Ficha técnica

Imágenes, Capturas de la película

Video trailer de la película

Enlaces de descarga

Descargar
Descargar Caracortada (1983) 1080p BluRay x265 HEVC DTS Dual Latino

dpeliculas

Aportes de DPeliculasHDmega la pass es:dpeliculashdmega.org Aportes de CinemaniaHD la pass es:cinemaniahdd.com

PelícuDelas relacionadas

  • La momia (2017) Webdl 1080p Latino

    2017
    La momia (2017) Webdl 1080p Latino

    4.0 1h 50m 2017

    Descargar La momia 2017 1080p webdl  Latino, esta pelicula estara disponible con audio latino final...

    Director: Jo Beckett

    Género: Acción

    Actores: Vera Chok

  • Batman & Harley Quinn (2017) Full Latino

    2017
    Batman & Harley Quinn (2017) Full Latino

    0.0 0h 0m 2017

    Descargar gratis Batman & Harley Quinn (2017) Full Latino. Batman y Nighwing debrán unir fuerzas...

    Director: Sam Liu

    Género: Acción

    Actores: Trevor Devall

  • Snowden (2016) 1080p Latino

    2016
    Snowden (2016) 1080p Latino

    0.0 2h 15m 2016

    Basada en el libro "The Snowden files. The inside story of the world's most wanted man" escrito por Luke...

    Director: Oliver Stone

    Género: Drama

    Actores: Zachary Quinto

Comentarios 6
  • slash - 05 Junio, 2017

    ¡Muchas gracias por estos clásicos! ¿Pondrán en Plateada Cara Cortada? Dejo subtítulos srt latino completos y forzados (nada mas son unas cuantas líneas), saludos.

    https://mega.nz/#F!Qh1jkZ7R!aXgSqlKrPzW8lmv7tNFs9w

    • dpelis

      Administrador
      - 05 Junio, 2017

      tratare de hacerla

  • ivalean - 03 Junio, 2017

    es el audio latino cubano o mexicano?

    • dpelis

      Administrador
      - 03 Junio, 2017

      la verdad no podri informar ya q el uploader no especifico

    • slash - 03 Junio, 2017

      De esta película hay tres doblajes:

      1. El primero, que se encuentra desaparecido.
      2. El segundo, que tiene acento cubano.
      3. El Tercero que tiene acento neutro.

      El de esta película es el segundo, con acento cubano, saludos.

      • dpelis

        Administrador
        - 04 Junio, 2017

        muy amable por tus datos. saludos