Call of Heroes (2016) 1080p Latino

1.001 vistas
1 estrella2 estrellas3 estrellas4 estrellas5 estrellas (Ninguna valoración todavía)
Cargando…

Información de Call of Heroes (2016) 1080p Latino

Datos de la película

  • Calidad: 1080p
  • Audio: Se especifica abajo de la Sinopsis
  • Subtitulos: Español Latino SRT - Ingles SRT
  • Resolución: Dpelis
  • Formato: MKV
  • Codec: H.264
  • Encoder: Dpelis
  • Mediainfo: Ver Ver
  • Call of Heroes (2016) 1080p Latino.mkv
    Format                      : Matroska
    Format version              : Version 4 / Version 2
    File size                   : 3.43 GiB
    Duration                    : 1 h 59 min
    Overall bit rate            : 4 101 kb/s
    Encoded date                : UTC 2017-07-02 00:38:35 / UTC 2017-07-01T22:32:15Z
    Writing application         : mkvmerge v10.0.0 ('To Drown In You') 64bit
    Writing library             : libebml v1.3.4 + libmatroska v1.4.5 / Lavf57.7.2

    Video
    ID                          : 1
    Format                      : AVC
    Format/Info                 : Advanced Video Codec
    Format profile              : [email protected]
    Format settings, CABAC      : Yes
    Format settings, ReFrames   : 4 frames
    Codec ID                    : V_MPEG4/ISO/AVC
    Duration                    : 1 h 59 min
    Bit rate                    : 3 500 kb/s
    Width                       : 1 920 pixels
    Height                      : 816 pixels
    Display aspect ratio        : 2.35:1
    Frame rate mode             : Constant
    Frame rate                  : 24.000 FPS
    Color space                 : YUV
    Chroma subsampling          : 4:2:0
    Bit depth                   : 8 bits
    Scan type                   : Progressive
    Bits/(Pixel*Frame)          : 0.093
    Stream size                 : 2.88 GiB (84%)
    Writing library             : x264 core 148 r2708 86b7198
    Encoding settings           : cabac=1 / ref=3 / deblock=1:0:0 / analyse=0x3:0x113 / me=hex / subme=7 / psy=1 / psy_rd=1.00:0.00 / mixed_ref=1 / me_range=16 / chroma_me=1 / trellis=1 / 8x8dct=1 / cqm=0 / deadzone=21,11 / fast_pskip=1 / chroma_qp_offset=-2 / threads=12 / lookahead_threads=2 / sliced_threads=0 / nr=0 / decimate=1 / interlaced=0 / bluray_compat=0 / constrained_intra=0 / bframes=3 / b_pyramid=2 / b_adapt=1 / b_bias=0 / direct=1 / weightb=1 / open_gop=0 / weightp=2 / keyint=240 / keyint_min=24 / scenecut=40 / intra_refresh=0 / rc_lookahead=40 / rc=abr / mbtree=1 / bitrate=3500 / ratetol=1.0 / qcomp=0.60 / qpmin=0 / qpmax=69 / qpstep=4 / vbv_maxrate=62500 / vbv_bufsize=78125 / nal_hrd=none / filler=0 / ip_ratio=1.40 / aq=1:1.00
    Default                     : Yes
    Forced                      : No
    Color range                 : Limited
    Color primaries             : BT.709
    Transfer characteristics    : BT.709
    Matrix coefficients         : BT.709
    Statistics Tags Issue       : mkvmerge v10.0.0 ('To Drown In You') 64bit 2017-07-02 00:38:35 / mkvmerge v10.0.0 ('To Drown In You') 64bit 2017-07-02 00:38:35 / UTC 2017-07-01T22:32:15Z
    FromStats_BitRate           : 3522982
    FromStats_Duration          : 01:59:42.250000000
    FromStats_FrameCount        : 172374
    FromStats_StreamSize        : 3162867870

    Audio #1
    ID                          : 2
    Format                      : AC-3
    Format/Info                 : Audio Coding 3
    Format settings, Endianness : Big
    Codec ID                    : A_AC3
    Duration                    : 1 h 59 min
    Bit rate mode               : Constant
    Bit rate                    : 192 kb/s
    Channel(s)                  : 2 channels
    Channel positions           : Front: L R
    Sampling rate               : 48.0 kHz
    Frame rate                  : 31.250 FPS (1536 spf)
    Bit depth                   : 16 bits
    Compression mode            : Lossy
    Delay relative to video     : 14 s 995 ms
    Stream size                 : 164 MiB (5%)
    Language                    : Spanish
    Service kind                : Complete Main
    Default                     : Yes
    Forced                      : No
    Statistics Tags Issue       : mkvmerge v10.0.0 ('To Drown In You') 64bit 2017-07-02 00:38:35 / mkvmerge v10.0.0 ('To Drown In You') 64bit 2017-07-02 00:38:35 / UTC 2017-07-01T22:32:15Z
    FromStats_BitRate           : 192000
    FromStats_Duration          : 01:59:25.120000000
    FromStats_FrameCount        : 223910
    FromStats_StreamSize        : 171962880

    Audio #2
    ID                          : 3
    Format                      : AC-3
    Format/Info                 : Audio Coding 3
    Format settings, Endianness : Big
    Codec ID                    : A_AC3
    Duration                    : 1 h 59 min
    Bit rate mode               : Constant
    Bit rate                    : 384 kb/s
    Channel(s)                  : 6 channels
    Channel positions           : Front: L C R, Side: L R, LFE
    Sampling rate               : 48.0 kHz
    Frame rate                  : 31.250 FPS (1536 spf)
    Bit depth                   : 16 bits
    Compression mode            : Lossy
    Delay relative to video     : -5 ms
    Stream size                 : 329 MiB (9%)
    Title                       : Surround
    Language                    : Chinese
    Service kind                : Complete Main
    Default                     : No
    Forced                      : No
    Statistics Tags Issue       : mkvmerge v10.0.0 ('To Drown In You') 64bit 2017-07-02 00:38:35 / mkvmerge v10.0.0 ('To Drown In You') 64bit 2017-07-02 00:38:35 / UTC 2017-07-01T22:32:15Z
    FromStats_BitRate           : 384000
    FromStats_Duration          : 01:59:42.240000000
    FromStats_FrameCount        : 224445
    FromStats_StreamSize        : 344747520

    Text #1
    ID                          : 4
    Format                      : UTF-8
    Codec ID                    : S_TEXT/UTF8
    Codec ID/Info               : UTF-8 Plain Text
    Default                     : Yes
    Forced                      : No
    Statistics Tags Issue       : mkvmerge v10.0.0 ('To Drown In You') 64bit 2017-07-02 00:38:35 / mkvmerge v10.0.0 ('To Drown In You') 64bit 2017-07-02 00:38:35 / UTC 2017-07-01T22:32:15Z
    FromStats_BitRate           : 37
    FromStats_Duration          : 01:53:13.259000000
    FromStats_FrameCount        : 1061
    FromStats_StreamSize        : 31577

    Text #2
    ID                          : 5
    Format                      : UTF-8
    Codec ID                    : S_TEXT/UTF8
    Codec ID/Info               : UTF-8 Plain Text
    Default                     : No
    Forced                      : No
    Statistics Tags Issue       : mkvmerge v10.0.0 ('To Drown In You') 64bit 2017-07-02 00:38:35 / mkvmerge v10.0.0 ('To Drown In You') 64bit 2017-07-02 00:38:35 / UTC 2017-07-01T22:32:15Z
    FromStats_BitRate           : 33
    FromStats_Duration          : 01:52:11.563000000
    FromStats_FrameCount        : 1282
    FromStats_StreamSize        : 28593

    Menu
    00:00:00.000                : :00:00:00.000
    00:08:56.292                : :00:08:56.208
    00:24:10.000                : :00:24:09.958
    00:32:18.167                : :00:32:18.167
    00:40:09.167                : :00:40:09.042
    00:45:38.500                : :00:45:38.375
    00:53:11.625                : :00:53:11.583
    01:00:14.792                : :01:00:14.667
    01:14:37.708                : :01:14:37.583
    01:20:53.458                : :01:20:53.458
    01:30:44.583                : :01:30:44.500
    01:41:10.333                : :01:41:10.208
    01:50:31.250                : :01:50:31.167
    01:55:08.542                : :01:55:08.458

  • Peso: 3.43GB

Sinopsis

Situada en 1914 durante la dinastía Qing, cuenta la historia de un pueblo situado en la zona rural de Pucheng que cae en una situación peligrosa cuando su gobierno envía toda su fuerza militar a primera línea. Así, los habitantes de Pucheng tendrán que enfrentarse al joven y cruel comandante Cao, líder de las tropas enemigas que llegan al pueblo. Durante esta lucha en la que mueren inocentes, defenderán la justicia y su tierra natal.

Español Latino AC3 2.O – Chino AC3 5.1 Bluray

Ficha técnica

  • Titulo original: Ngai sing
  • Fecha de lanzamiento: 12-08-2016 (China, Hong Kong)
  • Director: Benny Chan
  • Género: Acción, Aventura
  • Puntuación: 0.0 0 votos
  • Duración:
    2h 0m

Imágenes, Capturas de la película

Video trailer de la película

Enlaces de descarga

Descargar Call of Heroes (2016) 1080p Latino
Descargar

dpeliculas

Aportes de DPeliculasHDmega la pass es:dpeliculashdmega.org Aportes de CinemaniaHD la pass es:cinemaniahdd.com
Guardado en : Acción , Aventura

PelícuDelas relacionadas

  • Operation Mekong (2016) 1080p Latino

    2016
    Operation Mekong (2016) 1080p Latino

    5.0 2h 4m 2016

    A lo largo del río Mekong se encuentra el llamado triángulo dorado, uno de los mayores proveedores...

    Director: Dante Lam

    Género: Acción

    Actores: Zhao Jian

  • Collide (2016) 1080p Latino

    2016
    Collide (2016) 1080p Latino

    0.0 1h 39m 2016

    Descargar Persecucion al limite hd latino. Tambien conocida como Collide 1080p Cuando uno de los atracos...

    Director: Eran Creevy

    Género: Acción

    Actores: Nicholas Hoult

  • Gold la gran estafa (2016) 1080p Latino

    2016
    Gold la gran estafa (2016) 1080p Latino

    0.0 2h 1m 2016

    Descarga Gold hd latino, también conocida La gran estafa 1080p latino Kenny Wells es un fracasado hombre...

    Director: Stephen Gaghan

    Género: Aventura

    Actores: Yothin Mapobphun

Comentarios 1
  • slash - 02 Julio, 2017

    Gracias, muy buena película, que se vengan las de Jackie chan, Bruce Lee, y Ip Man, solo sugiero, saludos.