Bruno & Boots Go Jump in the Pool (2016) Webdl 720p Latino

457 vistas
1 estrella2 estrellas3 estrellas4 estrellas5 estrellas (Ninguna valoración todavía)
Cargando…

Información de Bruno & Boots Go Jump in the Pool (2016) Webdl 720p Latino

Datos de la película

  • Calidad: WEBDL
  • Audio: Se especifica abajo de la Sinopsis
  • Subtitulos: Español Latino SRT - Ingles SRT
  • Resolución: 1280x720p
  • Formato: MKV
  • Codec: H.264
  • Encoder: Dpelis
  • Mediainfo: Ver Ver
  • Bruno And Boots (2016) webdl 720p Latino.mkv
    Format                      : Matroska
    Format version              : Version 4 / Version 2
    File size                   : 1.41 GiB
    Duration                    : 1 h 31 min
    Overall bit rate            : 2 211 kb/s
    Movie name                  : DPeliculasHDMega.ORG
    Encoded date                : UTC 2017-07-04 23:28:54
    Writing application         : mkvmerge v10.0.0 ('To Drown In You') 64bit
    Writing library             : libebml v1.3.4 + libmatroska v1.4.5

    Video
    ID                          : 1
    Format                      : AVC
    Format/Info                 : Advanced Video Codec
    Format profile              : [email protected]
    Format settings, CABAC      : Yes
    Format settings, ReFrames   : 4 frames
    Codec ID                    : V_MPEG4/ISO/AVC
    Duration                    : 1 h 31 min
    Bit rate                    : 1 700 kb/s
    Width                       : 1 280 pixels
    Height                      : 720 pixels
    Display aspect ratio        : 16:9
    Frame rate mode             : Constant
    Frame rate                  : 23.976 (24000/1001) FPS
    Color space                 : YUV
    Chroma subsampling          : 4:2:0
    Bit depth                   : 8 bits
    Scan type                   : Progressive
    Bits/(Pixel*Frame)          : 0.077
    Stream size                 : 1.08 GiB (77%)
    Writing library             : x264 core 148 r2708 86b7198
    Encoding settings           : cabac=1 / ref=3 / deblock=1:0:0 / analyse=0x3:0x113 / me=hex / subme=7 / psy=1 / psy_rd=1.00:0.00 / mixed_ref=1 / me_range=16 / chroma_me=1 / trellis=1 / 8x8dct=1 / cqm=0 / deadzone=21,11 / fast_pskip=1 / chroma_qp_offset=-2 / threads=12 / lookahead_threads=2 / sliced_threads=0 / nr=0 / decimate=1 / interlaced=0 / bluray_compat=0 / constrained_intra=0 / bframes=3 / b_pyramid=2 / b_adapt=1 / b_bias=0 / direct=1 / weightb=1 / open_gop=0 / weightp=2 / keyint=240 / keyint_min=24 / scenecut=40 / intra_refresh=0 / rc_lookahead=40 / rc=abr / mbtree=1 / bitrate=1700 / ratetol=1.0 / qcomp=0.60 / qpmin=0 / qpmax=69 / qpstep=4 / vbv_maxrate=62500 / vbv_bufsize=78125 / nal_hrd=none / filler=0 / ip_ratio=1.40 / aq=1:1.00
    Default                     : Yes
    Forced                      : No
    Color range                 : Limited
    Color primaries             : BT.709
    Transfer characteristics    : BT.709
    Matrix coefficients         : BT.709

    Audio #1
    ID                          : 2
    Format                      : AC-3
    Format/Info                 : Audio Coding 3
    Format settings, Endianness : Big
    Codec ID                    : A_AC3
    Duration                    : 1 h 31 min
    Bit rate mode               : Constant
    Bit rate                    : 256 kb/s
    Channel(s)                  : 2 channels
    Channel positions           : Front: L R
    Sampling rate               : 48.0 kHz
    Frame rate                  : 31.250 FPS (1536 spf)
    Bit depth                   : 16 bits
    Compression mode            : Lossy
    Delay relative to video     : -5 ms
    Stream size                 : 167 MiB (12%)
    Language                    : Spanish
    Service kind                : Complete Main
    Default                     : Yes
    Forced                      : No

    Audio #2
    ID                          : 3
    Format                      : AC-3
    Format/Info                 : Audio Coding 3
    Format settings, Endianness : Big
    Codec ID                    : A_AC3
    Duration                    : 1 h 31 min
    Bit rate mode               : Constant
    Bit rate                    : 256 kb/s
    Channel(s)                  : 2 channels
    Channel positions           : Front: L R
    Sampling rate               : 48.0 kHz
    Frame rate                  : 31.250 FPS (1536 spf)
    Bit depth                   : 16 bits
    Compression mode            : Lossy
    Delay relative to video     : -5 ms
    Stream size                 : 167 MiB (12%)
    Language                    : English
    Service kind                : Complete Main
    Default                     : No
    Forced                      : No

    Text #1
    ID                          : 4
    Format                      : UTF-8
    Codec ID                    : S_TEXT/UTF8
    Codec ID/Info               : UTF-8 Plain Text
    Duration                    : 1 h 30 min
    Bit rate                    : 82 b/s
    Count of elements           : 1438
    Stream size                 : 55.1 KiB (0%)
    Language                    : Spanish
    Default                     : Yes
    Forced                      : No

    Text #2
    ID                          : 5
    Format                      : UTF-8
    Codec ID                    : S_TEXT/UTF8
    Codec ID/Info               : UTF-8 Plain Text
    Duration                    : 1 h 30 min
    Bit rate                    : 86 b/s
    Count of elements           : 2819
    Stream size                 : 57.4 KiB (0%)
    Language                    : English
    Default                     : No
    Forced                      : No

  • Peso: 1.41 GB

Sinopsis

Basado en la más vendida serie de libros de MacDonald Hall de Gordon Korman. Bruno Walton y Melvin “Boots” O’Neal son los entusiastas más infames en el MacDonald Hall, una supuestamente prestigiosa escuela para niños. Bruno, el cerebro detrás de la operación, ha logrado convencer a Boots para que se dirija a sus innumerables operaciones de broma, ya sea robando la mascota de una escuela rival, cambiando la bandera de la escuela o invadiendo la Academia para la Educación de las Niñas y el Despertar de Miss Scrimmage. A pesar de sus bromas, Bruno y Boots AMAN su escuela y están dispuestos a hacer cualquier cosa para protegerla.

Español Latino AC3 2.0  – Ingles AC3 2.0

Ficha técnica

  • Titulo original: Bruno & Boots: Go Jump in the Pool
  • Director: Vivieno Caldinelli
  • Género: Comedia
  • Puntuación: 0.0 0 votos
  • Duración:
    1h 31m

Imágenes, Capturas de la película

Video trailer de la película

Enlaces de descarga

Descargar Bruno & Boots Go Jump in the Pool (2016) Webdl 720p Latino
Descargar

dpeliculas

Aportes de DPeliculasHDmega la pass es:dpeliculashdmega.org Aportes de CinemaniaHD la pass es:cinemaniahdd.com
Guardado en : Comedia

PelícuDelas relacionadas

  • Desnudo (2017) Webdl 1080p Latino

    2017
    Desnudo (2017) Webdl 1080p Latino

    0.0 1h 36m 2017

    Descargar Naked hd latino. Es una pelicula de Netflix, tambien conocida en latinoamerica como Desnudo...

    Director: Michael Tiddes

    Género: Comedia

    Actores: Regina Hall

  • Empeliculados (2017) Webdl 1080p Latino

    2017
    Empeliculados (2017) Webdl 1080p Latino

    0.0 1h 35m 2017

    Descargar Empeliculados hd latino, es una pelicula colombiana. Jorge, un director de cine soñador con...

    Director: Diego Fernando Bustamante

    Género: Comedia

    Actores: Paula Castaño

  • Kung Fu Yoga (2017) Full 1080p Castellano

    2017
    Kung Fu Yoga (2017) Full 1080p Castellano

    0.0 2h 10m 2017

    Descargar Kung Fu Yoga HD una película China pero con doblaje Castellano, no sabemos si habra latino...

    Director: Stanley Tong

    Género: Acción

    Actores: Zhang Guoli

Comentarios 2
  • lucas Oliveira - 14 Agosto, 2017

    Qual e senha para descompactar??

    • dpelis

      Administrador
      - 14 Agosto, 2017

      dpeliculashdmega.org