Born in China (2016) 1080p Latino

866 vistas
1 estrella2 estrellas3 estrellas4 estrellas5 estrellas (1 votos, promedio: 4,00 de 5)
Cargando…

Información de Born in China (2016) 1080p Latino

Datos de la película

  • Calidad: 1080p
  • Audio: Español Latino AC3 5.1 DVD - Ingles AC3 5.1 BLURAY
  • Subtitulos: Español Latino SRT
  • Resolución: 1920x1080
  • Formato: MKV
  • Codec: H.264
  • Encoder: Dpelis
  • Mediainfo: Ver Ver
  • Born in China (2016) 1080p Latino.mkv
    Format                      : Matroska
    Format version              : Version 4 / Version 2
    File size                   : 2.11 GiB
    Duration                    : 1 h 19 min
    Overall bit rate            : 3 814 kb/s
    Movie name                  : DPeliculasHDMega.ORG
    Encoded date                : UTC 2017-08-18 00:22:29
    Writing application         : mkvmerge v10.0.0 ('To Drown In You') 64bit
    Writing library             : libebml v1.3.4 + libmatroska v1.4.5

    Video
    ID                          : 1
    Format                      : AVC
    Format/Info                 : Advanced Video Codec
    Format profile              : [email protected]
    Format settings, CABAC      : Yes
    Format settings, ReFrames   : 4 frames
    Codec ID                    : V_MPEG4/ISO/AVC
    Duration                    : 1 h 19 min
    Bit rate                    : 3 500 kb/s
    Width                       : 1 920 pixels
    Height                      : 1 080 pixels
    Display aspect ratio        : 16:9
    Frame rate mode             : Constant
    Frame rate                  : 23.976 (24000/1001) FPS
    Color space                 : YUV
    Chroma subsampling          : 4:2:0
    Bit depth                   : 8 bits
    Scan type                   : Progressive
    Bits/(Pixel*Frame)          : 0.070
    Stream size                 : 1.90 GiB (90%)
    Writing library             : x264 core 148 r2708 86b7198
    Encoding settings           : cabac=1 / ref=3 / deblock=1:0:0 / analyse=0x3:0x113 / me=hex / subme=7 / psy=1 / psy_rd=1.00:0.00 / mixed_ref=1 / me_range=16 / chroma_me=1 / trellis=1 / 8x8dct=1 / cqm=0 / deadzone=21,11 / fast_pskip=1 / chroma_qp_offset=-2 / threads=34 / lookahead_threads=5 / sliced_threads=0 / nr=0 / decimate=1 / interlaced=0 / bluray_compat=0 / constrained_intra=0 / bframes=3 / b_pyramid=2 / b_adapt=1 / b_bias=0 / direct=1 / weightb=1 / open_gop=0 / weightp=2 / keyint=240 / keyint_min=24 / scenecut=40 / intra_refresh=0 / rc_lookahead=40 / rc=abr / mbtree=1 / bitrate=3500 / ratetol=1.0 / qcomp=0.60 / qpmin=0 / qpmax=69 / qpstep=4 / vbv_maxrate=62500 / vbv_bufsize=78125 / nal_hrd=none / filler=0 / ip_ratio=1.40 / aq=1:1.00
    Default                     : Yes
    Forced                      : No
    Color range                 : Limited
    Color primaries             : BT.709
    Transfer characteristics    : BT.709
    Matrix coefficients         : BT.709

    Audio
    ID                          : 2
    Format                      : AC-3
    Format/Info                 : Audio Coding 3
    Format settings, Endianness : Big
    Codec ID                    : A_AC3
    Duration                    : 1 h 19 min
    Bit rate mode               : Constant
    Bit rate                    : 384 kb/s
    Channel(s)                  : 6 channels
    Channel positions           : Front: L C R, Side: L R, LFE
    Sampling rate               : 48.0 kHz
    Frame rate                  : 31.250 FPS (1536 spf)
    Bit depth                   : 16 bits
    Compression mode            : Lossy
    Stream size                 : 218 MiB (10%)
    Service kind                : Complete Main
    Default                     : Yes
    Forced                      : No

    Text #1
    ID                          : 3
    Format                      : UTF-8
    Codec ID                    : S_TEXT/UTF8
    Codec ID/Info               : UTF-8 Plain Text
    Duration                    : 1 h 14 min
    Bit rate                    : 51 b/s
    Count of elements           : 627
    Stream size                 : 28.1 KiB (0%)
    Language                    : Spanish
    Default                     : No
    Forced                      : No

    Text #2
    ID                          : 4
    Format                      : UTF-8
    Codec ID                    : S_TEXT/UTF8
    Codec ID/Info               : UTF-8 Plain Text
    Duration                    : 51 min 24 s
    Bit rate                    : 0 b/s
    Count of elements           : 6
    Stream size                 : 65.0 Bytes (0%)
    Title                       : FORZADOS
    Language                    : Spanish
    Default                     : Yes
    Forced                      : No

    Menu
    00:00:00.000                : en:00:00:00.000
    00:05:06.848                : en:00:05:06.848
    00:13:39.444                : en:00:13:39.318
    00:22:03.280                : en:00:22:03.280
    00:29:32.562                : en:00:29:32.437
    00:34:26.982                : en:00:34:26.815
    00:40:39.354                : en:00:40:39.187
    00:46:52.977                : en:00:46:52.893
    00:53:28.747                : en:00:53:28.705
    00:59:35.155                : en:00:59:35.113
    01:06:40.413                : en:01:06:40.288
    01:17:52.418                : en:01:17:52.376

  • Peso: 2.11 GB

Sinopsis

Documental de la filial de Walt Disney Disneynature que recoge la vida salvaje y la belleza natural de China. El largometraje sigue de cerca las vidas de tres familias de animales: Los pandas majestuosos, los monos dorados y los leopardos de la nieve. La película viaja desde las gélidas montañas de China hasta el corazón de las selvas de bambú.

Chuan Lu (Ciudad de vida y muerte, El arma perdida) dirige este documental escrito por David Fowler, Brian Leith, Phil Chapman y el propio Lu. La actriz Xun Zhou es la encargada de poner voz a la cinta en su versión original.

Ficha técnica

  • Titulo original: Born in China
  • Fecha de lanzamiento: 21-04-2017 (China, United Kingdom, United States of America)
  • Director: Lu Chuan
  • Género: Documental, Drama
  • Puntuación: 4.0 1 votos
  • Duración:
    1h 19m

Imágenes, Capturas de la película

Video trailer de la película

Enlaces de descarga

Descargar Born in China (2016) 1080p Latino
Descargar

dpeliculas

Aportes de DPeliculasHDmega la pass es:dpeliculashdmega.org Aportes de CinemaniaHD la pass es:cinemaniahdd.com
Guardado en : Documental , Drama

PelícuDelas relacionadas

Comentarios 4
  • Bernal - 18 agosto, 2017

    lo Subiran en plateada?

    • dpelis

      Administrador
      - 22 agosto, 2017

      no estimado

  • Ironic - 18 agosto, 2017

    Solo tiene Audio Español y no doble Audio Español / Ingles

    • dpelis

      Administrador
      - 24 agosto, 2017

      es cierto luego agregre version pplateada, con audio ingles