Advertise here

Billy Lynn Honor Y Sentimiento (2016) FULL 1080p Latino

1.293 vistas
1 estrella2 estrellas3 estrellas4 estrellas5 estrellas (2 votos, promedio: 5,00 de 5)
Cargando…

Información de Billy Lynn Honor Y Sentimiento (2016) FULL 1080p Latino

peliculas mega

Datos de la película

  • Calidad: Full 1080p
  • Audio: Español Latino AC3 2.0 DVD - Ingles AC3 5.1 BLURAY
  • Subtitulos: Español Latino PGS
  • Resolución: 1920x1080p
  • Formato: MKV
  • Codec: H.265
  • Encoder: SebastianHDx
  • Mediainfo: Clic para Mostrar Datos Ver
  • Billy Lynn Honor Y Sentimiento (2016) 1080p BluRay x265 HEVC DTS Dual Latino.mkv
    Format                      : Matroska
    Format version              : Version 4 / Version 2
    File size                   : 3.88 GiB
    Duration                    : 1h 52mn
    Overall bit rate            : 4 926 Kbps
    Encoded date                : UTC 2017-02-27 03:52:35
    Writing application         : mkvmerge v8.6.1 ('Flying') 64bit
    Writing library             : libebml v1.3.3 + libmatroska v1.4.4
    DURATION                    : 01:50:43.845000000
    NUMBER_OF_FRAMES            : 3522
    NUMBER_OF_BYTES             : 45500693
    _STATISTICS_WRITING_APP     : mkvmerge v8.6.1 ('Flying') 64bit
    _STATISTICS_WRITING_DATE_UT : 2017-02-27 03:52:35
    _STATISTICS_TAGS            : BPS DURATION NUMBER_OF_FRAMES NUMBER_OF_BYTES

    Video
    ID                          : 1
    Format                      : HEVC
    Format/Info                 : High Efficiency Video Coding
    Format profile              : [email protected]@Main
    Codec ID                    : V_MPEGH/ISO/HEVC
    Duration                    : 1h 52mn
    Bit rate                    : 3 127 Kbps
    Width                       : 1 920 pixels
    Height                      : 1 080 pixels
    Display aspect ratio        : 16:9
    Frame rate mode             : Constant
    Frame rate                  : 23.976 fps
    Color space                 : YUV
    Chroma subsampling          : 4:2:0
    Bit depth                   : 8 bits
    Bits/(Pixel*Frame)          : 0.063
    Stream size                 : 2.46 GiB (63%)
    Writing library             : x265 2.1:[Windows][GCC 5.4.0][64 bit] 8bit
    Encoding settings           : wpp / ctu=64 / min-cu-size=8 / max-tu-size=32 / tu-intra-depth=1 / tu-inter-depth=1 / me=3 / subme=3 / merange=57 / rect / no-amp / max-merge=3 / temporal-mvp / no-early-skip / rskip / rdpenalty=0 / no-tskip / no-tskip-fast / strong-intra-smoothing / no-lossless / no-cu-lossless / no-constrained-intra / no-fast-intra / open-gop / no-temporal-layers / interlace=0 / keyint=240 / min-keyint=24 / scenecut=40 / rc-lookahead=25 / lookahead-slices=4 / bframes=4 / bframe-bias=0 / b-adapt=2 / ref=4 / limit-refs=3 / limit-modes / weightp / no-weightb / aq-mode=1 / qg-size=32 / aq-strength=1.00 / cbqpoffs=0 / crqpoffs=0 / rd=4 / psy-rd=2.00 / rdoq-level=2 / psy-rdoq=1.00 / log2-max-poc-lsb=8 / no-rd-refine / signhide / deblock=0:0 / sao / no-sao-non-deblock / b-pyramid / cutree / no-intra-refresh / rc=crf / crf=20.0 / qcomp=0.60 / qpmin=0 / qpmax=69 / qpstep=4 / ipratio=1.40 / pbratio=1.30
    Default                     : Yes
    Forced                      : No
    Color range                 : Limited
    Color primaries             : BT.709
    Transfer characteristics    : BT.709
    Matrix coefficients         : BT.709
    DURATION                    : 01:52:45.759000000
    NUMBER_OF_FRAMES            : 162215
    NUMBER_OF_BYTES             : 2679773199
    _STATISTICS_WRITING_APP     : mkvmerge v8.6.1 ('Flying') 64bit
    _STATISTICS_WRITING_DATE_UT : 2017-02-27 03:52:35
    _STATISTICS_TAGS            : BPS DURATION NUMBER_OF_FRAMES NUMBER_OF_BYTES

    Audio #1
    ID                          : 2
    Format                      : AC-3
    Format/Info                 : Audio Coding 3
    Mode extension              : CM (complete main)
    Format settings, Endianness : Big
    Codec ID                    : A_AC3
    Duration                    : 1h 52mn
    Bit rate mode               : Constant
    Bit rate                    : 192 Kbps
    Channel(s)                  : 2 channels
    Channel positions           : Front: L R
    Sampling rate               : 48.0 KHz
    Compression mode            : Lossy
    Stream size                 : 155 MiB (4%)
    Title                       : Español Latino AC3 2.0 [192 Kbps][WEB-DL]
    Language                    : Spanish
    Default                     : Yes
    Forced                      : No

    Audio #2
    ID                          : 3
    Format                      : DTS
    Format/Info                 : Digital Theater Systems
    Mode                        : 16
    Format settings, Endianness : Big
    Codec ID                    : A_DTS
    Duration                    : 1h 52mn
    Bit rate mode               : Constant
    Bit rate                    : 1 509 Kbps
    Channel(s)                  : 6 channels
    Channel positions           : Front: L C R, Side: L R, LFE
    Sampling rate               : 48.0 KHz
    Bit depth                   : 16 bits
    Compression mode            : Lossy
    Stream size                 : 1.19 GiB (31%)
    Title                       : Inglés DTS 5.1 [1509 Kbps]
    Language                    : English
    Default                     : No
    Forced                      : No

    Text #1
    ID                          : 4
    Format                      : UTF-8
    Codec ID                    : S_TEXT/UTF8
    Codec ID/Info               : UTF-8 Plain Text
    Title                       : Subtítulos Español Latino [SRT]
    Language                    : Spanish
    Default                     : No
    Forced                      : No

    Text #2
    ID                          : 5
    Format                      : PGS
    Codec ID                    : S_HDMV/PGS
    Codec ID/Info               : Picture based subtitle format used on BDs/HD-DVDs
    Title                       : Subtítulos Español Latino [PGS]
    Language                    : Spanish
    Default                     : No
    Forced                      : No

    Menu
    00:00:00.000                : :Chapter 1
    00:06:05.866                : :Chapter 2
    00:13:21.884                : :Chapter 3
    00:20:10.584                : :Chapter 4
    00:26:24.541                : :Chapter 5
    00:31:09.868                : :Chapter 6
    00:39:05.426                : :Chapter 7
    00:48:51.929                : :Chapter 8
    00:55:58.605                : :Chapter 9
    01:04:18.355                : :Chapter 10
    01:10:16.713                : :Chapter 11
    01:17:14.130                : :Chapter 12
    01:22:08.507                : :Chapter 13
    01:29:13.265                : :Chapter 14
    01:35:21.591                : :Chapter 15
    01:42:52.458                : :Chapter 16

  • Peso: 3.88 GB

Sinopsis

Descargar Billy Lynn Honor Y Sentimiento (2016) FULL HD 1080p x265 Billy Lynn  un joven de 19 años que participó en el Escuadrón Bravo durante la guerra en Irak. Allí, él y sus colegas han sobrevivido a una tensa batalla, tuvo una amplia cobertura mediática. Entonces van a volver a casa, se toma como un héroe por el Departamento de Defensa de los Estados Unidos. Para celebrar el heroísmo de los ocho miembros del Escuadrón Bravo, realizó una gira de promoción por todo el país, que termina con un espectáculo de Acción de Gracias. Mientras tanto, a diferencia de los estadounidenses, la percepción del conflicto armado, Lynn los trágicos recuerdos de la guerra y la pérdida de su sargento va a evolucionar en un tiroteo.

Ficha técnica

  • Titulo original: Billy Lynn's Long Halftime Walk
  • Fecha de lanzamiento: 10-11-2016 (China, United Kingdom, United States of America)
  • Director: Ang Lee
  • Género: 1080p x265 HEVC, Drama, Guerra
  • Puntuación: 5.0 2 votos
  • Duración:
    1h 50m

Video trailer de la película

Enlaces de descarga

Descargar
Descargar Billy Lynn Honor Y Sentimiento (2016) FULL 1080p Latino

dpeliculas

Aportes de DPeliculasHDmega la pass es:dpeliculashdmega.org Aportes de CinemaniaHD la pass es:cinemaniahdd.com
Guardado en : 1080p x265 HEVC , Drama , Guerra

Películas relacionadas

  • Your name (2016) Full 1080p Latino

    2016
    Your name (2016) Full 1080p Latino

    5.0 1 h 46 min 2016

    La película nos presenta a dos jóvenes, Mitsuha y Taki. La primera es una estudiante de instituto que...

    Director: Makoto Shinkai

    Género: Animación

    Actores: Tani Kanon

  • Atrápame si puedes (2002) Full 1080p Latino

    2002
    Atrápame si puedes (2002) Full 1080p Latino

    0.0 2h 20m 2002

    Frank Abagnale Jr. trabajó como médico, abogado y copiloto de una de las grandes líneas aéreas, todo...

    Director: Steven Spielberg

    Género: Crimen

    Actores: William Lauzon

  • Mi Nueva Yo (2017) WEBDL 1080p Latino

    2017
    Mi Nueva Yo (2017) WEBDL 1080p Latino

    0.0 1 h 37 min 2017

    Una madre de dos hijos se acaba de separar y decide iniciar una nueva vida en Los Ángeles. Los acontecimientos...

    Director: Hallie Meyers-Shyer

    Género: Comedia

    Actores: Reid Scott

  • The Walking Dead (2017) Temporada 8 WEBDL 1080p Latino

    2017
    The Walking Dead (2017) Temporada 8 WEBDL 1080p Latino

    5.0 0h 42m 2017

    Rick, Maggie y Ezekiel reúnen a sus comunidades para derrotar a Negan y los salvadores. Gregory intenta...

    Director: Frank Darabont

    Género: Action & Adventure

    Actores: Norman Reedus

Comentarios 3
  • andres felipe - 02 marzo, 2017

    amigo podrias pasarme solo el audio de esta pelicula ac3 5.. latino porque la subiste en caratula gris preo en ac3 2.0 te lo agradecería gran trabajo

    • dpelis

      Administrador
      - 02 marzo, 2017

      hola. no hay bd latino con 5.1 ni dvd con 5.1 por eso coloque 2.0
      saludos

  • Chakra - 01 marzo, 2017

    👍