Ben-Hur (2016) Full 1080p Latino

395 vistas
1 estrella2 estrellas3 estrellas4 estrellas5 estrellas (Ninguna valoración todavía)
Cargando…

Información de Ben-Hur (2016) Full 1080p Latino

Datos de la película

  • Calidad: Full 1080p
  • Audio: Español Latino AC3 5.1 BLURAY - Ingles DTS 5.1 BLURAY
  • Subtitulos: Español Latino PGS - Ingles PGS
  • Resolución: 1920X1080p
  • Formato: MKV
  • Codec: H.264
  • Encoder: Dpelis
  • Mediainfo: Ver Ver
  • Ben hur 2016 Full 1080p Latino.mkv
    Format                      : Matroska
    Format version              : Version 4 / Version 2
    File size                   : 5.74 GiB
    Duration                    : 2 h 3 min
    Overall bit rate            : 6 668 kb/s
    Movie name                  : DPeliculasHDMega.ORG
    Encoded date                : UTC 2017-06-18 18:29:43 / UTC 2017-06-11T05:13:10Z
    Writing application         : mkvmerge v10.0.0 ('To Drown In You') 64bit
    Writing library             : libebml v1.3.4 + libmatroska v1.4.5 / Lavf57.7.2

    Video
    ID                          : 1
    Format                      : AVC
    Format/Info                 : Advanced Video Codec
    Format profile              : [email protected]
    Format settings, CABAC      : Yes
    Format settings, ReFrames   : 4 frames
    Codec ID                    : V_MPEG4/ISO/AVC
    Duration                    : 2 h 3 min
    Bit rate                    : 4 387 kb/s
    Width                       : 1 920 pixels
    Height                      : 1 080 pixels
    Display aspect ratio        : 16:9
    Frame rate mode             : Constant
    Frame rate                  : 23.976 (24000/1001) FPS
    Color space                 : YUV
    Chroma subsampling          : 4:2:0
    Bit depth                   : 8 bits
    Scan type                   : Progressive
    Bits/(Pixel*Frame)          : 0.088
    Stream size                 : 3.78 GiB (66%)
    Writing library             : x264 core 148 r2708 86b7198
    Encoding settings           : cabac=1 / ref=4 / deblock=1:0:0 / analyse=0x3:0x133 / me=esa / subme=10 / psy=1 / psy_rd=1.00:0.00 / mixed_ref=1 / me_range=24 / chroma_me=1 / trellis=2 / 8x8dct=1 / cqm=0 / deadzone=21,11 / fast_pskip=1 / chroma_qp_offset=-2 / threads=12 / lookahead_threads=2 / sliced_threads=0 / nr=0 / decimate=1 / interlaced=0 / bluray_compat=0 / constrained_intra=0 / bframes=8 / b_pyramid=2 / b_adapt=2 / b_bias=0 / direct=3 / weightb=1 / open_gop=0 / weightp=2 / keyint=240 / keyint_min=24 / scenecut=40 / intra_refresh=0 / rc_lookahead=60 / rc=crf / mbtree=1 / crf=20.0 / qcomp=0.60 / qpmin=0 / qpmax=69 / qpstep=4 / vbv_maxrate=62500 / vbv_bufsize=78125 / crf_max=0.0 / nal_hrd=none / filler=0 / ip_ratio=1.40 / aq=1:1.00
    Default                     : Yes
    Forced                      : No
    Color range                 : Limited
    Color primaries             : BT.709
    Transfer characteristics    : BT.709
    Matrix coefficients         : BT.709
    Statistics Tags Issue       : mkvmerge v10.0.0 ('To Drown In You') 64bit 2017-06-18 18:29:43 / mkvmerge v10.0.0 ('To Drown In You') 64bit 2017-06-18 18:29:43 / UTC 2017-06-11T05:13:10Z
    FromStats_BitRate           : 4499967
    FromStats_Duration          : 02:03:19.309000000
    FromStats_FrameCount        : 177406
    FromStats_StreamSize        : 4162080946

    Audio #1
    ID                          : 2
    Format                      : AC-3
    Format/Info                 : Audio Coding 3
    Format settings, Endianness : Big
    Codec ID                    : A_AC3
    Duration                    : 2 h 3 min
    Bit rate mode               : Constant
    Bit rate                    : 640 kb/s
    Channel(s)                  : 6 channels
    Channel positions           : Front: L C R, Side: L R, LFE
    Sampling rate               : 48.0 kHz
    Frame rate                  : 31.250 FPS (1536 spf)
    Bit depth                   : 16 bits
    Compression mode            : Lossy
    Stream size                 : 565 MiB (10%)
    Title                       : Surround
    Language                    : Spanish
    Service kind                : Complete Main
    Default                     : Yes
    Forced                      : No
    Statistics Tags Issue       : mkvmerge v10.0.0 ('To Drown In You') 64bit 2017-06-18 18:29:43 / mkvmerge v10.0.0 ('To Drown In You') 64bit 2017-06-18 18:29:43 / UTC 2017-06-11T05:13:10Z
    FromStats_BitRate           : 640000
    FromStats_Duration          : 02:03:19.360000000
    FromStats_FrameCount        : 231230
    FromStats_StreamSize        : 591948800

    Audio #2
    ID                          : 3
    Format                      : DTS
    Format/Info                 : Digital Theater Systems
    Mode                        : 16
    Format settings, Endianness : Big
    Codec ID                    : A_DTS
    Duration                    : 2 h 3 min
    Bit rate mode               : Constant
    Bit rate                    : 1 509 kb/s
    Channel(s)                  : 6 channels
    Channel positions           : Front: L C R, Side: L R, LFE
    Sampling rate               : 48.0 kHz
    Frame rate                  : 93.750 FPS (512 spf)
    Bit depth                   : 24 bits
    Compression mode            : Lossy
    Stream size                 : 1.30 GiB (23%)
    Title                       : Surround
    Language                    : English
    Default                     : No
    Forced                      : No
    Statistics Tags Issue       : mkvmerge v10.0.0 ('To Drown In You') 64bit 2017-06-18 18:29:43 / mkvmerge v10.0.0 ('To Drown In You') 64bit 2017-06-18 18:29:43 / UTC 2017-06-11T05:13:10Z
    FromStats_BitRate           : 1508999
    FromStats_Duration          : 02:03:19.350000000
    FromStats_FrameCount        : 693689
    FromStats_StreamSize        : 1395702268

    Text #1
    ID                          : 4
    Format                      : PGS
    Muxing mode                 : zlib
    Codec ID                    : S_HDMV/PGS
    Codec ID/Info               : Picture based subtitle format used on BDs/HD-DVDs
    Language                    : Spanish
    Default                     : No
    Forced                      : No
    Statistics Tags Issue       : mkvmerge v10.0.0 ('To Drown In You') 64bit 2017-06-18 18:29:43 / mkvmerge v10.0.0 ('To Drown In You') 64bit 2017-06-18 18:29:43 / UTC 2017-06-11T05:13:10Z
    FromStats_BitRate           : 7987
    FromStats_Duration          : 02:02:33.304000000
    FromStats_FrameCount        : 2629
    FromStats_StreamSize        : 7341784

    Text #2
    ID                          : 5
    Format                      : PGS
    Muxing mode                 : zlib
    Codec ID                    : S_HDMV/PGS
    Codec ID/Info               : Picture based subtitle format used on BDs/HD-DVDs
    Language                    : English
    Default                     : No
    Forced                      : No
    Statistics Tags Issue       : mkvmerge v10.0.0 ('To Drown In You') 64bit 2017-06-18 18:29:43 / mkvmerge v10.0.0 ('To Drown In You') 64bit 2017-06-18 18:29:43 / UTC 2017-06-11T05:13:10Z
    FromStats_BitRate           : 9185
    FromStats_Duration          : 01:55:11.822000000
    FromStats_FrameCount        : 2884
    FromStats_StreamSize        : 7936267

    Menu
    00:00:00.000                : :Chapter 1
    00:07:03.882                : :Chapter 2
    00:15:42.942                : :Chapter 3
    00:19:47.895                : :Chapter 4
    00:27:25.853                : :Chapter 5
    00:33:09.362                : :Chapter 6
    00:41:07.215                : :Chapter 7
    00:48:20.064                : :Chapter 8
    00:55:21.652                : :Chapter 9
    01:05:41.229                : :Chapter 10
    01:13:15.892                : :Chapter 11
    01:22:26.900                : :Chapter 12
    01:31:30.193                : :Chapter 13
    01:39:55.656                : :Chapter 14
    01:46:30.801                : :Chapter 15
    01:53:30.137                : :Chapter 16

  • Peso: 5.74 GB

Sinopsis

Judah Ben-Hur (Jack Huston) es un príncipe falsamente acusado de traición por su hermano adoptivo Messala (Toby Kebbell), un oficial del ejército romano. Desposeído de su título y separado de su familia y de la mujer que ama (Nazanin Boniadi), Judah es condenado a la esclavitud en las galeras. Después de varios años, Judah regresa a su tierra natal en busca de venganza, pero encontrará su propia redención.

Ficha técnica

Imágenes, Capturas de la película

Video trailer de la película

Enlaces de descarga

Descargar Ben-Hur (2016) Full 1080p Latino
Descargar
Descargar

dpeliculas

Aportes de DPeliculasHDmega la pass es:dpeliculashdmega.org Aportes de CinemaniaHD la pass es:cinemaniahdd.com

PelícuDelas relacionadas

  • T2 Trainspotting (2017) Full 1080p Latino

    2017
    T2 Trainspotting (2017) Full 1080p Latino

    0.0 1h 57m 2017

    Han pasado 20 años desde que Mark Renton abandonara Escocia, y la heroína. Ahora, Renton vuelve a su...

    Director: Sylvia Parker

    Género: Crimen

    Actores: Tom Urie

  • Potosí (2013) WEBDL 1080p Latino

    2013
    Potosí (2013) WEBDL 1080p Latino

    0.0 0h 0m 2013

    Este largometraje con Alfredo Castruita en la dirección se estrenó en 2013 en festivales pero no ha...

    Director: Alfredo Castruita

    Género: Crimen

    Actores: Sonia Couoh

  • Sahara (2017) 1080p Latino

    2017
    Sahara (2017) 1080p Latino

    1.0 1h 19m 2017

    Cansado de ser el chivo expiatorio de su comunidad, entreabierta una serpiente y su amigo Pitt, escorpión,...

    Director: Pierre Coré

    Género: Animación

    Actores: Vincent Lacoste

  • Sahara (2017) 720p Latino

    2017
    Sahara (2017) 720p Latino

    0.0 1h 24m 2017

    Descargar Pelicula Sahara 2017 hd 720p latino,Cansados de ser el chivo expiatorio de su comunidad, Ajar...

    Director: Pierre Coré

    Género: Animación

    Actores: Vincent Lacoste

  • La casa de la esperanza (2017) Full 1080p Latino

    2017
    La casa de la esperanza (2017) Full 1080p Latino

    0.0 2h 4m 2017

    Descargar La casa de la esperanza  hd full 1080p latino, Cuando Alemania invadió Polonia, los bombarderos...

    Director: Niki Caro

    Género: Drama

    Actores: Val Maloku

Comentarios 2
  • Eduardo Garza - 21 Junio, 2017

    No hay links de Mega… los que dicen mega son de uptobox realmente, los 7 links.

    Si subiran links de Mega?

    Saludos.

    • dpelis

      Administrador
      - 21 Junio, 2017

      gracias por avisar,ya fue reparado