Baywatch: Los vigilantes de la playa (2017) UNRATED 1080p Latino

4.333 vistas
1 estrella2 estrellas3 estrellas4 estrellas5 estrellas (Ninguna valoración todavía)
Cargando…

Información de Baywatch: Los vigilantes de la playa (2017) UNRATED 1080p Latino

Datos de la película

  • Calidad: 1080p
  • Audio: Español Latino AC3 5.1 BLURAY - Ingles AC3 5.1 BLURAY
  • Subtitulos: Español Latino SRT - Ingles SRT
  • Resolución: 1920x804p
  • Formato: MKV
  • Codec: H.264
  • Encoder: Dpelis
  • Mediainfo: Ver Ver
  • Baywatch (2017) UNRATED 1080p Latino.mkv
    Format                      : Matroska
    Format version              : Version 4 / Version 2
    File size                   : 3.55 GiB
    Duration                    : 2 h 1 min
    Overall bit rate            : 4 187 kb/s
    Movie name                  : DPeliculasHDMega.ORG
    Encoded date                : UTC 2017-08-18 23:24:59 / UTC 2017-08-18T01:41:28Z
    Writing application         : mkvmerge v10.0.0 ('To Drown In You') 64bit
    Writing library             : libebml v1.3.4 + libmatroska v1.4.5 / Lavf57.7.2

    Video
    ID                          : 1
    Format                      : AVC
    Format/Info                 : Advanced Video Codec
    Format profile              : [email protected]
    Format settings, CABAC      : Yes
    Format settings, ReFrames   : 4 frames
    Codec ID                    : V_MPEG4/ISO/AVC
    Duration                    : 2 h 1 min
    Bit rate                    : 3 500 kb/s
    Width                       : 1 920 pixels
    Height                      : 804 pixels
    Display aspect ratio        : 2.40:1
    Frame rate mode             : Constant
    Frame rate                  : 23.976 (24000/1001) FPS
    Color space                 : YUV
    Chroma subsampling          : 4:2:0
    Bit depth                   : 8 bits
    Scan type                   : Progressive
    Bits/(Pixel*Frame)          : 0.095
    Stream size                 : 2.83 GiB (80%)
    Writing library             : x264 core 148 r2708 86b7198
    Encoding settings           : cabac=1 / ref=3 / deblock=1:0:0 / analyse=0x3:0x113 / me=hex / subme=7 / psy=1 / psy_rd=1.00:0.00 / mixed_ref=1 / me_range=16 / chroma_me=1 / trellis=1 / 8x8dct=1 / cqm=0 / deadzone=21,11 / fast_pskip=1 / chroma_qp_offset=-2 / threads=12 / lookahead_threads=2 / sliced_threads=0 / nr=0 / decimate=1 / interlaced=0 / bluray_compat=0 / constrained_intra=0 / bframes=3 / b_pyramid=2 / b_adapt=1 / b_bias=0 / direct=1 / weightb=1 / open_gop=0 / weightp=2 / keyint=240 / keyint_min=24 / scenecut=40 / intra_refresh=0 / rc_lookahead=40 / rc=abr / mbtree=1 / bitrate=3500 / ratetol=1.0 / qcomp=0.60 / qpmin=0 / qpmax=69 / qpstep=4 / vbv_maxrate=62500 / vbv_bufsize=78125 / nal_hrd=none / filler=0 / ip_ratio=1.40 / aq=1:1.00
    Default                     : Yes
    Forced                      : No
    Color range                 : Limited
    Color primaries             : BT.709
    Transfer characteristics    : BT.709
    Matrix coefficients         : BT.709
    Statistics Tags Issue       : mkvmerge v10.0.0 ('To Drown In You') 64bit 2017-08-18 23:24:59 / mkvmerge v10.0.0 ('To Drown In You') 64bit 2017-08-18 23:24:59 / UTC 2017-08-18T01:41:28Z
    FromStats_BitRate           : 3416909
    FromStats_Duration          : 02:01:22.526000000
    FromStats_FrameCount        : 174606
    FromStats_StreamSize        : 3110466336

    Audio #1
    ID                          : 2
    Format                      : AC-3
    Format/Info                 : Audio Coding 3
    Format settings, Endianness : Big
    Codec ID                    : A_AC3
    Duration                    : 2 h 1 min
    Bit rate mode               : Constant
    Bit rate                    : 384 kb/s
    Channel(s)                  : 6 channels
    Channel positions           : Front: L C R, Side: L R, LFE
    Sampling rate               : 48.0 kHz
    Frame rate                  : 31.250 FPS (1536 spf)
    Bit depth                   : 16 bits
    Compression mode            : Lossy
    Delay relative to video     : -5 ms
    Stream size                 : 333 MiB (9%)
    Language                    : Spanish
    Service kind                : Complete Main
    Default                     : Yes
    Forced                      : No
    Statistics Tags Issue       : mkvmerge v10.0.0 ('To Drown In You') 64bit 2017-08-18 23:24:59 / mkvmerge v10.0.0 ('To Drown In You') 64bit 2017-08-18 23:24:59 / UTC 2017-08-18T01:41:28Z
    FromStats_BitRate           : 384000
    FromStats_Duration          : 02:01:22.368000000
    FromStats_FrameCount        : 227574
    FromStats_StreamSize        : 349553664

    Audio #2
    ID                          : 3
    Format                      : AC-3
    Format/Info                 : Audio Coding 3
    Format settings, Endianness : Big
    Codec ID                    : A_AC3
    Duration                    : 2 h 1 min
    Bit rate mode               : Constant
    Bit rate                    : 384 kb/s
    Channel(s)                  : 6 channels
    Channel positions           : Front: L C R, Side: L R, LFE
    Sampling rate               : 48.0 kHz
    Frame rate                  : 31.250 FPS (1536 spf)
    Bit depth                   : 16 bits
    Compression mode            : Lossy
    Delay relative to video     : -5 ms
    Stream size                 : 333 MiB (9%)
    Title                       : Surround
    Language                    : English
    Service kind                : Complete Main
    Default                     : No
    Forced                      : No
    Statistics Tags Issue       : mkvmerge v10.0.0 ('To Drown In You') 64bit 2017-08-18 23:24:59 / mkvmerge v10.0.0 ('To Drown In You') 64bit 2017-08-18 23:24:59 / UTC 2017-08-18T01:41:28Z
    FromStats_BitRate           : 384000
    FromStats_Duration          : 02:01:22.528000000
    FromStats_FrameCount        : 227579
    FromStats_StreamSize        : 349561344

    Text #1
    ID                          : 4
    Format                      : UTF-8
    Codec ID                    : S_TEXT/UTF8
    Codec ID/Info               : UTF-8 Plain Text
    Language                    : Spanish
    Default                     : Yes
    Forced                      : No
    Statistics Tags Issue       : mkvmerge v10.0.0 ('To Drown In You') 64bit 2017-08-18 23:24:59 / mkvmerge v10.0.0 ('To Drown In You') 64bit 2017-08-18 23:24:59 / UTC 2017-08-18T01:41:28Z
    FromStats_BitRate           : 67
    FromStats_Duration          : 01:56:13.250000000
    FromStats_FrameCount        : 1724
    FromStats_StreamSize        : 58930

    Text #2
    ID                          : 5
    Format                      : UTF-8
    Codec ID                    : S_TEXT/UTF8
    Codec ID/Info               : UTF-8 Plain Text
    Language                    : English
    Default                     : No
    Forced                      : No
    Statistics Tags Issue       : mkvmerge v10.0.0 ('To Drown In You') 64bit 2017-08-18 23:24:59 / mkvmerge v10.0.0 ('To Drown In You') 64bit 2017-08-18 23:24:59 / UTC 2017-08-18T01:41:28Z
    FromStats_BitRate           : 87
    FromStats_Duration          : 01:57:24.138000000
    FromStats_FrameCount        : 2416
    FromStats_StreamSize        : 77018

  • Peso: 3.55 GB

Sinopsis

Descargar Pelicula Baywatch Los Vigilantes de la plata 2017 hd latino, Los populares socorristas que se encargan de la seguridad en la californiana playa de Santa Mónica llegan a la gran pantalla, ellos son la élite de la élite, el alma de esta playa. Mitch Buchannon (Dwayne Johnson), un estricto y esforzado socorrista de la antigua escuela, deberá trabajar codo con codo con el rebelde Matt Brody (Zac Efron), un joven ex nadador olímpico caído en desgracia al que le gusta saltarse las normas. A pesar de tener personalidades opuestas, los dos socorristas deberán unir fuerzas y formar equipo. Juntos descubrirán una trama criminal, en torno a drogas y asesinos, que amenaza el futuro de la Bahía. Su objetivo será proteger la playa de su destrucción a manos de un magnate del petróleo.

Adaptación cinematográfica de Los vigilantes de la playa, la popular serie de televisión de los 90, dirigida por Seth Gordon (Por la cara, Cómo acabar con tu jefe). Su reparto está formado por los actores Dwayne Johnson (Fast & Furious 8, Un espía y medio), Zac Efron (Mike y Dave buscan rollo serio, Malditos vecinos 2), Priyanka Chopra (Quantico, Krrish 3), Kelly Rohrbach (Café Society, Dos hombres y medio), Alexandra Daddario (San Andrés, True Detective), Ilfenesh Hadera (Billions, Show Me a Hero), además de las estrellas de la serie original Pamela Anderson y David Hasselhoff.

Ficha técnica

  • Titulo original: Baywatch
  • Fecha de lanzamiento: 12-05-2017 (United States of America)
  • Director: Seth Gordon
  • Género: Acción, Comedia
  • Puntuación: 0.0 0 votos
  • Duración:
    2h 1m

Imágenes, Capturas de la película

Video trailer de la película

Enlaces de descarga

Descargar Baywatch: Los vigilantes de la playa (2017) UNRATED 1080p Latino
Descargar

dpeliculas

Aportes de DPeliculasHDmega la pass es:dpeliculashdmega.org Aportes de CinemaniaHD la pass es:cinemaniahdd.com
Guardado en : Acción , Comedia

PelícuDelas relacionadas

Comentarios 7
  • Isaac López - 20 agosto, 2017

    Buenos días

    Al extraer me da el siguiente mensaje: “El archivo tiene un formato desconocido o está dañado”, qué puedo hacer?

    Gracias

    • dpelis

      Administrador
      - 24 agosto, 2017

      seguro se le dano el rar, ya puedo extraer?

  • sergivoh - 19 agosto, 2017

    muchas gracias por tus peliculas y tremenda calidad aqui esperando a muchas mas peliculas para poder ver gracias

  • francisco - 15 agosto, 2017

    junto con saludar y agradecer la excelente calidad de las peliculas consulto cunado sale la version plateada de baywatch

    • dpelis

      Administrador
      - 16 agosto, 2017

      este mes. dia no puede decir

  • leonardo arias - 15 agosto, 2017

    mejoren el audio porfa.

    • dpelis

      Administrador
      - 16 agosto, 2017

      ok. le dire a Itunes, sobre su comentario. saludos