Baywatch (2017) UNRATED Full 1080p Latino

3.503 vistas
1 estrella2 estrellas3 estrellas4 estrellas5 estrellas (7 votos, promedio: 2,29 de 5)
Cargando…

Información de Baywatch (2017) UNRATED Full 1080p Latino

Datos de la película

  • Calidad: Full 1080p
  • Audio: Español Latino AC3 5.1 BLURAY - Ingles AC3 5.1 BLURAY
  • Subtitulos: Español Latino PGS - Ingles PGS
  • Resolución: 1920x1080p
  • Formato: MKV
  • Codec: H.264
  • Encoder: Dpelis
  • Mediainfo: Ver Ver
  • Baywatch (2017) UNRATED Full 1080p Latino.mkv
    Format                      : Matroska
    Format version              : Version 4 / Version 2
    File size                   : 5.04 GiB
    Duration                    : 2 h 1 min
    Overall bit rate            : 5 942 kb/s
    Encoded date                : UTC 2017-08-20 00:07:18 / UTC 2017-08-19T04:10:14Z
    Writing application         : mkvmerge v10.0.0 ('To Drown In You') 64bit
    Writing library             : libebml v1.3.4 + libmatroska v1.4.5 / Lavf57.7.2

    Video
    ID                          : 1
    Format                      : AVC
    Format/Info                 : Advanced Video Codec
    Format profile              : [email protected]
    Format settings, CABAC      : Yes
    Format settings, ReFrames   : 4 frames
    Codec ID                    : V_MPEG4/ISO/AVC
    Duration                    : 2 h 1 min
    Bit rate                    : 4 544 kb/s
    Width                       : 1 920 pixels
    Height                      : 1 080 pixels
    Display aspect ratio        : 16:9
    Frame rate mode             : Constant
    Frame rate                  : 23.976 (24000/1001) FPS
    Color space                 : YUV
    Chroma subsampling          : 4:2:0
    Bit depth                   : 8 bits
    Scan type                   : Progressive
    Bits/(Pixel*Frame)          : 0.091
    Stream size                 : 3.85 GiB (76%)
    Writing library             : x264 core 148 r2708 86b7198
    Encoding settings           : cabac=1 / ref=4 / deblock=1:0:0 / analyse=0x3:0x133 / me=esa / subme=10 / psy=1 / psy_rd=1.00:0.00 / mixed_ref=1 / me_range=24 / chroma_me=1 / trellis=2 / 8x8dct=1 / cqm=0 / deadzone=21,11 / fast_pskip=1 / chroma_qp_offset=-2 / threads=34 / lookahead_threads=5 / sliced_threads=0 / nr=0 / decimate=1 / interlaced=0 / bluray_compat=0 / constrained_intra=0 / bframes=8 / b_pyramid=2 / b_adapt=2 / b_bias=0 / direct=3 / weightb=1 / open_gop=0 / weightp=2 / keyint=240 / keyint_min=24 / scenecut=40 / intra_refresh=0 / rc_lookahead=60 / rc=crf / mbtree=1 / crf=20.0 / qcomp=0.60 / qpmin=0 / qpmax=69 / qpstep=4 / vbv_maxrate=62500 / vbv_bufsize=78125 / crf_max=0.0 / nal_hrd=none / filler=0 / ip_ratio=1.40 / aq=1:1.00
    Default                     : Yes
    Forced                      : No
    Color range                 : Limited
    Color primaries             : BT.709
    Transfer characteristics    : BT.709
    Matrix coefficients         : BT.709
    Statistics Tags Issue       : mkvmerge v10.0.0 ('To Drown In You') 64bit 2017-08-20 00:07:18 / mkvmerge v10.0.0 ('To Drown In You') 64bit 2017-08-20 00:07:18 / UTC 2017-08-19T04:10:14Z
    FromStats_BitRate           : 4633651
    FromStats_Duration          : 02:01:22.567000000
    FromStats_FrameCount        : 174607
    FromStats_StreamSize        : 4218109917

    Audio #1
    ID                          : 2
    Format                      : AC-3
    Format/Info                 : Audio Coding 3
    Format settings, Endianness : Big
    Codec ID                    : A_AC3
    Duration                    : 2 h 1 min
    Bit rate mode               : Constant
    Bit rate                    : 640 kb/s
    Channel(s)                  : 6 channels
    Channel positions           : Front: L C R, Side: L R, LFE
    Sampling rate               : 48.0 kHz
    Frame rate                  : 31.250 FPS (1536 spf)
    Bit depth                   : 16 bits
    Compression mode            : Lossy
    Delay relative to video     : 22 ms
    Stream size                 : 556 MiB (11%)
    Title                       : Surround
    Language                    : Spanish
    Service kind                : Complete Main
    Default                     : Yes
    Forced                      : No
    Statistics Tags Issue       : mkvmerge v10.0.0 ('To Drown In You') 64bit 2017-08-20 00:07:18 / mkvmerge v10.0.0 ('To Drown In You') 64bit 2017-08-20 00:07:18 / UTC 2017-08-19T04:10:14Z
    FromStats_BitRate           : 640000
    FromStats_Duration          : 02:01:22.560000000
    FromStats_FrameCount        : 227580
    FromStats_StreamSize        : 582604800

    Audio #2
    ID                          : 3
    Format                      : AC-3
    Format/Info                 : Audio Coding 3
    Format settings, Endianness : Big
    Codec ID                    : A_AC3
    Duration                    : 2 h 1 min
    Bit rate mode               : Constant
    Bit rate                    : 640 kb/s
    Channel(s)                  : 6 channels
    Channel positions           : Front: L C R, Side: L R, LFE
    Sampling rate               : 48.0 kHz
    Frame rate                  : 31.250 FPS (1536 spf)
    Bit depth                   : 16 bits
    Compression mode            : Lossy
    Stream size                 : 556 MiB (11%)
    Title                       : Surround
    Language                    : English
    Service kind                : Complete Main
    Default                     : No
    Forced                      : No
    Statistics Tags Issue       : mkvmerge v10.0.0 ('To Drown In You') 64bit 2017-08-20 00:07:18 / mkvmerge v10.0.0 ('To Drown In You') 64bit 2017-08-20 00:07:18 / UTC 2017-08-19T04:10:14Z
    FromStats_BitRate           : 640000
    FromStats_Duration          : 02:01:22.624000000
    FromStats_FrameCount        : 227582
    FromStats_StreamSize        : 582609920

    Text #1
    ID                          : 4
    Format                      : PGS
    Muxing mode                 : zlib
    Codec ID                    : S_HDMV/PGS
    Codec ID/Info               : Picture based subtitle format used on BDs/HD-DVDs
    Language                    : Spanish
    Default                     : No
    Forced                      : No
    Statistics Tags Issue       : mkvmerge v10.0.0 ('To Drown In You') 64bit 2017-08-20 00:07:18 / mkvmerge v10.0.0 ('To Drown In You') 64bit 2017-08-20 00:07:18 / UTC 2017-08-19T04:10:14Z
    FromStats_BitRate           : 12306
    FromStats_Duration          : 01:56:13.484000000
    FromStats_FrameCount        : 3497
    FromStats_StreamSize        : 10727215

    Text #2
    ID                          : 5
    Format                      : PGS
    Muxing mode                 : zlib
    Codec ID                    : S_HDMV/PGS
    Codec ID/Info               : Picture based subtitle format used on BDs/HD-DVDs
    Language                    : English
    Default                     : No
    Forced                      : No
    Statistics Tags Issue       : mkvmerge v10.0.0 ('To Drown In You') 64bit 2017-08-20 00:07:18 / mkvmerge v10.0.0 ('To Drown In You') 64bit 2017-08-20 00:07:18 / UTC 2017-08-19T04:10:14Z
    FromStats_BitRate           : 15550
    FromStats_Duration          : 01:54:00.684000000
    FromStats_FrameCount        : 4233
    FromStats_StreamSize        : 13296846

    Menu
    00:00:00.000                : :Chapter 1
    00:08:55.577                : :Chapter 2
    00:16:54.388                : :Chapter 3
    00:21:01.844                : :Chapter 4
    00:29:40.988                : :Chapter 5
    00:38:03.656                : :Chapter 6
    00:44:55.109                : :Chapter 7
    00:50:33.489                : :Chapter 8
    01:01:29.978                : :Chapter 9
    01:11:48.846                : :Chapter 10
    01:19:44.738                : :Chapter 11
    01:29:00.877                : :Chapter 12
    01:35:23.259                : :Chapter 13
    01:44:31.682                : :Chapter 14
    01:50:07.184                : :Chapter 15
    01:54:51.802                : :Chapter 16

  • Peso: 5.04 GB

Sinopsis

‘Los vigilantes de la playa’ narra la historia del esforzado socorrista Mitch Buchannon (Johnson) y su choque de personalidades con un bravucón socorrista novato (Efron). Juntos, descubren una trama delictiva local que amenaza el futuro de la Bahía.

Ficha técnica

Imágenes, Capturas de la película

Video trailer de la película

Enlaces de descarga

Descargar Baywatch (2017) UNRATED Full 1080p Latino
Descargar

dpeliculas

Aportes de DPeliculasHDmega la pass es:dpeliculashdmega.org Aportes de CinemaniaHD la pass es:cinemaniahdd.com

PelícuDelas relacionadas

  • La momia (2017) 3D OU 1080p Latino

    2017
    La momia (2017) 3D OU 1080p Latino

    0.0 1h 50m 2017

    Descargar gratis La momia (2017) 3D OU 1080p Latino. A pesar de estar enterrada en una tumba en lo más...

    Director: Jo Beckett

    Género: 3D Half OU

    Actores: Vera Chok

  • Dragon Ball Super (2015) Full 1080p Latino

    2015
    Dragon Ball Super (2015) Full 1080p Latino

    4.1 0h 24m 2015

    Si eres un seguidor de la serie Dragon ball super latino, entonces ahora puedes disfrutar de esta maravillosa...

    Director: Akira Toriyama

    Género: Anime

    Actores: Naoki Tatsuta

Comentarios 10
  • A - 07 septiembre, 2017

    Excelente Película.. Estimado pudiera resubir las Películas de Comedias: The Other Guys: Los Otros Dos y la de Cop out: Dos Polis? son tremendas películas para reir. Traté de descargarlas de la antigua página pero los links están caídos. Les agradecería muchísimo que pudieran resubirlas en esta página… Saludos.. son los mejores…

  • jonny - 02 septiembre, 2017

    ami no me sale ningun comercial no me deja ver los links porque no me sale el ad para hacerle click

    • dpelis

      Administrador
      - 02 septiembre, 2017

      instale Hola extencion para chrome. luego instalar usted cambia de ip y intente de nuevo

  • francisco - 22 agosto, 2017

    junto con saludar consulto como cuando van ha subir piratas del caribe 5 ???

    • dpelis

      Administrador
      - 22 agosto, 2017

      aun no hay fecha

  • luis - 21 agosto, 2017

    ojala que no hay desfase en esta pelicula PRIMERO LA 2 PELICULA DE DIVERGENTE DESPUES BOYKA Y EL ARO 2002 ASI NO ES PS TOY ASADO
    XD VAMO CON FE

    • dpelis

      Administrador
      - 21 agosto, 2017

      que tiempo el aro 2?

  • Byron - 20 agosto, 2017

    Amigos, tengo una consulta, hace poco mas de un mes que llevo desconectado de la pagina y me quiero poner al dia con las descargas pero quisiera saber si ya se puede descargar de MEGA sin limitación o aun limita las descargas, la ultima vez que descargue estaban implementando el oso de google drive pero segun intente ahora bajar de ahi parece que ya limita, espero me puedan resolver mi duda para continuar con la produccion.

    • dpelis

      Administrador
      - 03 septiembre, 2017

      mega siempre sigue limite, google drive limita al descargar mucho esas partes

  • JhLink77 - 20 agosto, 2017

    Wow Excelente aporte maestros muchas gracias 😀