Batman & Harley Quinn (2017) 1080p Latino

6.860 vistas
1 estrella2 estrellas3 estrellas4 estrellas5 estrellas (Ninguna valoración todavía)
Cargando…

Información de Batman & Harley Quinn (2017) 1080p Latino

Datos de la película

  • Calidad: 1080p
  • Audio: Español Latino AC3 5.1 BLURAY - Ingles AC3 5.1 BLURAY
  • Subtitulos: Español Latino SRT
  • Resolución: 1920x1080
  • Formato: MKV
  • Codec: H.264
  • Encoder: Dpelis
  • Mediainfo: Ver Ver
  • Batman And Harley Quinn (2017) 1080p Latino.mkv
    Format                      : Matroska
    Format version              : Version 4 / Version 2
    File size                   : 2.47 GiB
    Duration                    : 1 h 14 min
    Overall bit rate            : 4 772 kb/s
    Encoded date                : UTC 2017-08-20T00:05:05Z
    Writing application         : HandBrake 1.0.7 2017040900
    Writing library             : Lavf57.7.2

    Video
    ID                          : 1
    Format                      : AVC
    Format/Info                 : Advanced Video Codec
    Format profile              : [email protected]
    Format settings, CABAC      : Yes
    Format settings, ReFrames   : 4 frames
    Codec ID                    : V_MPEG4/ISO/AVC
    Duration                    : 1 h 14 min
    Bit rate                    : 3 500 kb/s
    Width                       : 1 920 pixels
    Height                      : 1 080 pixels
    Display aspect ratio        : 16:9
    Frame rate mode             : Constant
    Frame rate                  : 23.976 (24000/1001) FPS
    Color space                 : YUV
    Chroma subsampling          : 4:2:0
    Bit depth                   : 8 bits
    Scan type                   : Progressive
    Bits/(Pixel*Frame)          : 0.070
    Stream size                 : 1.83 GiB (74%)
    Writing library             : x264 core 148 r2708 86b7198
    Encoding settings           : cabac=1 / ref=3 / deblock=1:0:0 / analyse=0x3:0x113 / me=hex / subme=7 / psy=1 / psy_rd=1.00:0.00 / mixed_ref=1 / me_range=16 / chroma_me=1 / trellis=1 / 8x8dct=1 / cqm=0 / deadzone=21,11 / fast_pskip=1 / chroma_qp_offset=-2 / threads=12 / lookahead_threads=2 / sliced_threads=0 / nr=0 / decimate=1 / interlaced=0 / bluray_compat=0 / constrained_intra=0 / bframes=3 / b_pyramid=2 / b_adapt=1 / b_bias=0 / direct=1 / weightb=1 / open_gop=0 / weightp=2 / keyint=240 / keyint_min=24 / scenecut=40 / intra_refresh=0 / rc_lookahead=40 / rc=abr / mbtree=1 / bitrate=3500 / ratetol=1.0 / qcomp=0.60 / qpmin=0 / qpmax=69 / qpstep=4 / vbv_maxrate=62500 / vbv_bufsize=78125 / nal_hrd=none / filler=0 / ip_ratio=1.40 / aq=1:1.00
    Default                     : Yes
    Forced                      : No
    Color range                 : Limited
    Color primaries             : BT.709
    Transfer characteristics    : BT.709
    Matrix coefficients         : BT.709

    Audio #1
    ID                          : 2
    Format                      : AC-3
    Format/Info                 : Audio Coding 3
    Format settings, Endianness : Big
    Codec ID                    : A_AC3
    Duration                    : 1 h 14 min
    Bit rate mode               : Constant
    Bit rate                    : 384 kb/s
    Channel(s)                  : 6 channels
    Channel positions           : Front: L C R, Side: L R, LFE
    Sampling rate               : 48.0 kHz
    Frame rate                  : 31.250 FPS (1536 spf)
    Bit depth                   : 16 bits
    Compression mode            : Lossy
    Delay relative to video     : -5 ms
    Stream size                 : 204 MiB (8%)
    Title                       : Surround
    Language                    : Spanish
    Service kind                : Complete Main
    Default                     : Yes
    Forced                      : No

    Audio #2
    ID                          : 3
    Format                      : AC-3
    Format/Info                 : Audio Coding 3
    Format settings, Endianness : Big
    Codec ID                    : A_AC3
    Duration                    : 1 h 14 min
    Bit rate mode               : Constant
    Bit rate                    : 384 kb/s
    Channel(s)                  : 6 channels
    Channel positions           : Front: L C R, Side: L R, LFE
    Sampling rate               : 48.0 kHz
    Frame rate                  : 31.250 FPS (1536 spf)
    Bit depth                   : 16 bits
    Compression mode            : Lossy
    Delay relative to video     : -5 ms
    Stream size                 : 204 MiB (8%)
    Title                       : Surround
    Language                    : Spanish
    Service kind                : Complete Main
    Default                     : No
    Forced                      : No

    Audio #3
    ID                          : 4
    Format                      : AC-3
    Format/Info                 : Audio Coding 3
    Format settings, Endianness : Big
    Codec ID                    : A_AC3
    Duration                    : 1 h 14 min
    Bit rate mode               : Constant
    Bit rate                    : 384 kb/s
    Channel(s)                  : 6 channels
    Channel positions           : Front: L C R, Side: L R, LFE
    Sampling rate               : 48.0 kHz
    Frame rate                  : 31.250 FPS (1536 spf)
    Bit depth                   : 16 bits
    Compression mode            : Lossy
    Delay relative to video     : -5 ms
    Stream size                 : 204 MiB (8%)
    Title                       : Surround
    Language                    : English
    Service kind                : Complete Main
    Default                     : No
    Forced                      : No

    Text #1
    ID                          : 5
    Format                      : PGS
    Codec ID                    : S_HDMV/PGS
    Codec ID/Info               : Picture based subtitle format used on BDs/HD-DVDs
    Language                    : Spanish
    Default                     : No
    Forced                      : No

    Text #2
    ID                          : 6
    Format                      : PGS
    Codec ID                    : S_HDMV/PGS
    Codec ID/Info               : Picture based subtitle format used on BDs/HD-DVDs
    Language                    : Spanish
    Default                     : No
    Forced                      : No

    Text #3
    ID                          : 7
    Format                      : PGS
    Codec ID                    : S_HDMV/PGS
    Codec ID/Info               : Picture based subtitle format used on BDs/HD-DVDs
    Language                    : English
    Default                     : No
    Forced                      : No

    Menu
    00:00:00.000                : :Chapter 1
    00:10:05.563                : :Chapter 2
    00:20:53.085                : :Chapter 3
    00:30:34.916                : :Chapter 4
    00:38:26.012                : :Chapter 5
    00:47:45.654                : :Chapter 6
    00:57:53.637                : :Chapter 7
    01:08:19.387                : :Chapter 8

  • Peso: 2.47 GB

Sinopsis

Warner Bros. ha lanzado la portada o cubierta, así coImagen carátula de Batman and Harley Quinnmo la fecha de lanzamiento de la próxima película animada del universo DC, “Batman and Harley Quinn hd latino”, de la que veíamos su trailer pocos días atrás.

La película llegará el 15 de agosto en Digital HD y el 29 de agosto en el resto de formatos (Ultra HD Blu-ray Combo Pack, Blu-ray Deluxe Giftset, Blu-ray Combo Pack y DVD). Como es usual, de momento nada de fechas fuera de Estados Unidos.

“Batman and Harley Quinn” nos mostrará una curiosa alianza entre Batman, Nightwing y Harley Quinn mediante la que deberán detener un plan de Poison Ivy y Plant Master.

Kevin Conroy volverá a poner la voz de Batman y Loren Lester, voz de Robin en la serie animada de los noventa, regresará para poner voz a Dick Grayson / Nightwing. Se ha confirmado también a Paget Brewster (“Criminal Minds”) como Poison Ivy , John DiMaggio (“Futurama”) como Swamp Thing, Eric Bauza, Rob Paulsen, Robin Atkin Downes, Mindy Sterling y Trevor Devall.

Ficha técnica

  • Titulo original: Batman & Harley Quinn
  • Fecha de lanzamiento: 14-08-2017 (United States of America)
  • Género: Acción, Animación
  • Puntuación: 0.0 0 votos
  • Duración:
    1h 14m

Imágenes, Capturas de la película

Video trailer de la película

Enlaces de descarga

Descargar Batman & Harley Quinn (2017) 1080p Latino
Descargar

dpeliculas

Aportes de DPeliculasHDmega la pass es:dpeliculashdmega.org Aportes de CinemaniaHD la pass es:cinemaniahdd.com
Guardado en : Acción , Animación

PelícuDelas relacionadas

  • La momia (2017) 3D OU 1080p Latino

    2017
    La momia (2017) 3D OU 1080p Latino

    0.0 1h 50m 2017

    Descargar gratis La momia (2017) 3D OU 1080p Latino. A pesar de estar enterrada en una tumba en lo más...

    Director: Jo Beckett

    Género: 3D Half OU

    Actores: Vera Chok

  • Enredados otra vez (2017) WEBDL 1080p Latino

    2017
    Enredados otra vez (2017) WEBDL 1080p Latino

    5.0 0h 55m 2017

    Descargar Pelicula Tangled: Before Ever After Calidad WEBDL Latino¡Mientras Rapunzel se prepara para...

    Director: Tom Caulfield

    Género: Animación

    Actores: Zachary Levi

  • Shopkins Chef Club (2016) 1080p WEB-DL Latino

    2016
    Shopkins Chef Club (2016) 1080p WEB-DL Latino

    0.0 0h 0m 2016

    La vida nunca es ordinaria en Shopville, pero las cosas están a punto de obtener un poco extraordinario...

    Director: Raymond McGrath

    Género: Animación

    Actores: Marieve Herington

Comentarios 6
  • Cristopher - 24 agosto, 2017

    Links are down

  • luis diaz - 16 agosto, 2017

    gracias………………………………..bajando……………..

  • mauricio - 16 agosto, 2017

    HE DESCARGADO 2 PELICULAS Y LAS DOS ESTAN MALAS
    SON PAGINAS PARA GANAR PLATA CON PUBLICIDAD??????

    • dpelis

      Administrador
      - 16 agosto, 2017

      ?? a lo mejor usted es el que fracasa siempre en el intento. aca todo esta bueno.

    • slash - 17 agosto, 2017

      Debería ser mas detallado cuando se refiere a “malas”, su comentario suena muy vago. En cuanto a la calidad de las películas de este sitio, es muy buena, de las mejores, saludos.

    • Carlos - 17 agosto, 2017

      hablas tonterias esta es la mejor pagina