Ballerina (2017) 1080p Latino

2.269 vistas
1 estrella2 estrellas3 estrellas4 estrellas5 estrellas (2 votos, promedio: 4,50 de 5)
Cargando…

Información de Ballerina (2017) 1080p Latino

Ballerina HD

Datos de la película

  • Calidad: 1080p
  • Audio: Español Latino AC3 2.0 iTUNES - Ingles AC3 5.1 BLURAY
  • Subtitulos: Español Latino SRT - Ingles SRT
  • Resolución: 1920x800p
  • Formato: MKV
  • Codec: H.264
  • Encoder: Dpelis
  • Mediainfo: Ver Ver
  • Ballerina 2016 1080p Latino.mkv
    Format                      : Matroska
    Format version              : Version 4 / Version 2
    File size                   : 2.67 GiB
    Duration                    : 1 h 29 min
    Overall bit rate            : 4 288 kb/s
    Movie name                  : DPeliculasHDMega.ORG
    Encoded date                : UTC 2017-04-26 21:59:46 / UTC 2017-04-26T20:17:44Z
    Writing application         : mkvmerge v10.0.0 ('To Drown In You') 64bit
    Writing library             : libebml v1.3.4 + libmatroska v1.4.5 / Lavf57.7.2

    Video
    ID                          : 1
    Format                      : AVC
    Format/Info                 : Advanced Video Codec
    Format profile              : [email protected]
    Format settings, CABAC      : Yes
    Format settings, ReFrames   : 4 frames
    Codec ID                    : V_MPEG4/ISO/AVC
    Duration                    : 1 h 29 min
    Bit rate                    : 3 500 kb/s
    Width                       : 1 920 pixels
    Height                      : 816 pixels
    Display aspect ratio        : 2.35:1
    Frame rate mode             : Constant
    Frame rate                  : 24.000 FPS
    Color space                 : YUV
    Chroma subsampling          : 4:2:0
    Bit depth                   : 8 bits
    Scan type                   : Progressive
    Bits/(Pixel*Frame)          : 0.093
    Stream size                 : 2.14 GiB (80%)
    Writing library             : x264 core 148 r2708 86b7198
    Encoding settings           : cabac=1 / ref=3 / deblock=1:0:0 / analyse=0x3:0x113 / me=hex / subme=7 / psy=1 / psy_rd=1.00:0.00 / mixed_ref=1 / me_range=16 / chroma_me=1 / trellis=1 / 8x8dct=1 / cqm=0 / deadzone=21,11 / fast_pskip=1 / chroma_qp_offset=-2 / threads=12 / lookahead_threads=2 / sliced_threads=0 / nr=0 / decimate=1 / interlaced=0 / bluray_compat=0 / constrained_intra=0 / bframes=3 / b_pyramid=2 / b_adapt=1 / b_bias=0 / direct=1 / weightb=1 / open_gop=0 / weightp=2 / keyint=240 / keyint_min=24 / scenecut=40 / intra_refresh=0 / rc_lookahead=40 / rc=abr / mbtree=1 / bitrate=3500 / ratetol=1.0 / qcomp=0.60 / qpmin=0 / qpmax=69 / qpstep=4 / vbv_maxrate=62500 / vbv_bufsize=78125 / nal_hrd=none / filler=0 / ip_ratio=1.40 / aq=1:1.00
    Default                     : Yes
    Forced                      : No
    Color range                 : Limited
    Color primaries             : BT.709
    Transfer characteristics    : BT.709
    Matrix coefficients         : BT.709
    Statistics Tags Issue       : mkvmerge v10.0.0 ('To Drown In You') 64bit 2017-04-26 21:59:46 / mkvmerge v10.0.0 ('To Drown In You') 64bit 2017-04-26 21:59:46 / UTC 2017-04-26T20:17:44Z
    FromStats_BitRate           : 3494702
    FromStats_Duration          : 01:29:06.625000000
    FromStats_FrameCount        : 128319
    FromStats_StreamSize        : 2335607768

    Audio #1
    ID                          : 2
    Format                      : AC-3
    Format/Info                 : Audio Coding 3
    Mode                        : Dolby Digital
    Format settings, Endianness : Big
    Codec ID                    : A_AC3
    Duration                    : 1 h 29 min
    Bit rate mode               : Constant
    Bit rate                    : 384 kb/s
    Channel(s)                  : 2 channels
    Channel positions           : Front: L R
    Sampling rate               : 48.0 kHz
    Frame rate                  : 31.250 FPS (1536 spf)
    Bit depth                   : 16 bits
    Compression mode            : Lossy
    Delay relative to video     : -5 ms
    Stream size                 : 245 MiB (9%)
    Title                       : Stereo
    Language                    : Spanish
    Service kind                : Complete Main
    Default                     : Yes
    Forced                      : No
    Statistics Tags Issue       : mkvmerge v10.0.0 ('To Drown In You') 64bit 2017-04-26 21:59:46 / mkvmerge v10.0.0 ('To Drown In You') 64bit 2017-04-26 21:59:46 / UTC 2017-04-26T20:17:44Z
    FromStats_BitRate           : 384000
    FromStats_Duration          : 01:29:06.560000000
    FromStats_FrameCount        : 167080
    FromStats_StreamSize        : 256634880

    Audio #2
    ID                          : 3
    Format                      : AC-3
    Format/Info                 : Audio Coding 3
    Format settings, Endianness : Big
    Codec ID                    : A_AC3
    Duration                    : 1 h 29 min
    Bit rate mode               : Constant
    Bit rate                    : 384 kb/s
    Channel(s)                  : 6 channels
    Channel positions           : Front: L C R, Side: L R, LFE
    Sampling rate               : 48.0 kHz
    Frame rate                  : 31.250 FPS (1536 spf)
    Bit depth                   : 16 bits
    Compression mode            : Lossy
    Delay relative to video     : -5 ms
    Stream size                 : 245 MiB (9%)
    Title                       : Surround
    Language                    : English
    Service kind                : Complete Main
    Default                     : No
    Forced                      : No
    Statistics Tags Issue       : mkvmerge v10.0.0 ('To Drown In You') 64bit 2017-04-26 21:59:46 / mkvmerge v10.0.0 ('To Drown In You') 64bit 2017-04-26 21:59:46 / UTC 2017-04-26T20:17:44Z
    FromStats_BitRate           : 384000
    FromStats_Duration          : 01:29:06.560000000
    FromStats_FrameCount        : 167080
    FromStats_StreamSize        : 256634880

    Text #1
    ID                          : 4
    Format                      : PGS
    Muxing mode                 : zlib
    Codec ID                    : S_HDMV/PGS
    Codec ID/Info               : Picture based subtitle format used on BDs/HD-DVDs
    Language                    : Spanish
    Default                     : No
    Forced                      : No
    Statistics Tags Issue       : mkvmerge v10.0.0 ('To Drown In You') 64bit 2017-04-26 21:59:46 / mkvmerge v10.0.0 ('To Drown In You') 64bit 2017-04-26 21:59:46 / UTC 2017-04-26T20:17:44Z
    FromStats_BitRate           : 7187
    FromStats_Duration          : 01:27:46.292000000
    FromStats_FrameCount        : 2443
    FromStats_StreamSize        : 4731187

    Text #2
    ID                          : 5
    Format                      : PGS
    Muxing mode                 : zlib
    Codec ID                    : S_HDMV/PGS
    Codec ID/Info               : Picture based subtitle format used on BDs/HD-DVDs
    Language                    : English
    Default                     : No
    Forced                      : No
    Statistics Tags Issue       : mkvmerge v10.0.0 ('To Drown In You') 64bit 2017-04-26 21:59:46 / mkvmerge v10.0.0 ('To Drown In You') 64bit 2017-04-26 21:59:46 / UTC 2017-04-26T20:17:44Z
    FromStats_BitRate           : 15804
    FromStats_Duration          : 01:28:03.583000000
    FromStats_FrameCount        : 3127
    FromStats_StreamSize        : 10437919

    Text #3
    ID                          : 6
    Format                      : UTF-8
    Codec ID                    : S_TEXT/UTF8
    Codec ID/Info               : UTF-8 Plain Text
    Language                    : Spanish
    Default                     : Yes
    Forced                      : No
    Statistics Tags Issue       : mkvmerge v10.0.0 ('To Drown In You') 64bit 2017-04-26 21:59:46 / mkvmerge v10.0.0 ('To Drown In You') 64bit 2017-04-26 21:59:46 / UTC 2017-04-26T20:17:44Z
    FromStats_BitRate           : 62
    FromStats_Duration          : 01:27:46.317000000
    FromStats_FrameCount        : 1267
    FromStats_StreamSize        : 41083

    Text #4
    ID                          : 7
    Format                      : UTF-8
    Codec ID                    : S_TEXT/UTF8
    Codec ID/Info               : UTF-8 Plain Text
    Language                    : English
    Default                     : No
    Forced                      : No
    Statistics Tags Issue       : mkvmerge v10.0.0 ('To Drown In You') 64bit 2017-04-26 21:59:46 / mkvmerge v10.0.0 ('To Drown In You') 64bit 2017-04-26 21:59:46 / UTC 2017-04-26T20:17:44Z
    FromStats_BitRate           : 58
    FromStats_Duration          : 01:27:50.965000000
    FromStats_FrameCount        : 1342
    FromStats_StreamSize        : 38431

    Menu
    00:00:00.000                : :Chapter 1
    00:04:54.000                : :Chapter 2
    00:10:57.708                : :Chapter 3
    00:13:54.125                : :Chapter 4
    00:18:00.875                : :Chapter 5
    00:23:18.750                : :Chapter 6
    00:28:03.542                : :Chapter 7
    00:32:55.000                : :Chapter 8
    00:36:14.458                : :Chapter 9
    00:41:19.833                : :Chapter 10
    00:44:54.708                : :Chapter 11
    00:50:25.000                : :Chapter 12
    00:56:41.792                : :Chapter 13
    01:02:38.792                : :Chapter 14
    01:08:48.750                : :Chapter 15
    01:13:12.667                : :Chapter 16
    01:17:43.292                : :Chapter 17
    01:22:49.917                : :Chapter 18

  • Peso: 2.67 GB

Sinopsis

Descagar Ballerina 1080p Latino, Huérfano a los 11, Felicia (Elle Fanning) tiene un sueño: ir a París y convertirse en una bailarina. Su mejor amigo Víctor (Nat Wolff), un niño imaginativo, pero agotador con una pasión por la creación tiene su sueño de convertirse en un famoso inventor. En un acto de fe, Víctor y Felicia dejan su orfanato en busca de sus pasiones. Pero – hay una trampa, Felicia tiene que fingir ser el hijo de una familia rica con el fin de lograr la admisión en la prestigiosa escuela de París Opera Ballet y competitivo. Y sin ningún tipo de formación profesional en danza, pronto se entera de que el talento por sí solo no es suficiente para superar las actitudes viciosas, la connivencia de sus compañeros de clase, dirigidos por Camille alta desviada (Maddie Ziegler). Decididos a tener éxito, Felicia encontró a su mentor en la custodia de la dura y misteriosa escuela Odette (Carly Rae Jepsen), que, con el estímulo amistad Victor, ayuda a alcanzar las estrellas.

 

Nota: Audio Latino iTunes con Cinavia

Ficha técnica

Imágenes, Capturas de la película

Video trailer de la película

Enlaces de descarga

Descargar Ballerina (2017) 1080p Latino
Descargar

dpeliculas

Aportes de DPeliculasHDmega la pass es:dpeliculashdmega.org Aportes de CinemaniaHD la pass es:cinemaniahdd.com
Guardado en : Animación , Aventura , Comedia , Familia

PelícuDelas relacionadas

  • La momia (2017) Webdl 1080p Latino

    2017
    La momia (2017) Webdl 1080p Latino

    4.0 1h 50m 2017

    Descargar La momia 2017 1080p webdl  Latino, esta pelicula estara disponible con audio latino final...

    Director: Jo Beckett

    Género: Acción

    Actores: Vera Chok

  • Batman & Harley Quinn (2017) Full Latino

    2017
    Batman & Harley Quinn (2017) Full Latino

    0.0 0h 0m 2017

    Descargar gratis Batman & Harley Quinn (2017) Full Latino. Batman y Nighwing debrán unir fuerzas...

    Director: Sam Liu

    Género: Acción

    Actores: Trevor Devall

  • Juego de Tronos (2017) Temporada 7 WEBDL 1080p Latino

    2017
    Juego de Tronos (2017) Temporada 7 WEBDL 1080p Latino

    4.2 60 minutos 2017

    Descargar La serie Game of Thrones temporada 7 hd latino tambien conocida Juegos de tronos hd 1080p latino...

    Director: David Benioff

    Género: Animación

    Actores: Peter Dinklage

Comentarios 3