Bad Santa 2 (2016) 1080p Latino

961 vistas
1 estrella2 estrellas3 estrellas4 estrellas5 estrellas (1 votos, promedio: 5,00 de 5)
Cargando…

Información de Bad Santa 2 (2016) 1080p Latino

bab santa 2 latino

Datos de la película

  • Calidad: Full 1080p
  • Audio: Español Latino DTS 5.1 BLURAY - Ingles DTS 5.1 BLURAY
  • Subtitulos: Español Latino PGS - Ingles PGS
  • Resolución: 1920x1080p
  • Formato: MKV
  • Codec: H.265
  • Encoder: SebastianHDx
  • Mediainfo: Ver Ver
  • Bad Santa 2 (2016) 1080p BluRay x265 HEVC DTS Dual Latino.mkv
    Format                      : Matroska
    Format version              : Version 4 / Version 2
    File size                   : 2.86 GiB
    Duration                    : 1h 34mn
    Overall bit rate            : 4 322 Kbps
    Encoded date                : UTC 2017-02-18 23:19:39
    Writing application         : mkvmerge v8.6.1 ('Flying') 64bit
    Writing library             : libebml v1.3.3 + libmatroska v1.4.4
    DURATION                    : 01:26:22.210000000
    NUMBER_OF_FRAMES            : 2207
    NUMBER_OF_BYTES             : 30986779
    _STATISTICS_WRITING_APP     : mkvmerge v8.6.1 ('Flying') 64bit
    _STATISTICS_WRITING_DATE_UT : 2017-02-18 23:19:39
    _STATISTICS_TAGS            : BPS DURATION NUMBER_OF_FRAMES NUMBER_OF_BYTES

    Video
    ID                          : 1
    Format                      : HEVC
    Format/Info                 : High Efficiency Video Coding
    Format profile              : [email protected]@Main
    Codec ID                    : V_MPEGH/ISO/HEVC
    Duration                    : 1h 34mn
    Bit rate                    : 1 959 Kbps
    Width                       : 1 920 pixels
    Height                      : 1 080 pixels
    Display aspect ratio        : 16:9
    Frame rate mode             : Constant
    Frame rate                  : 23.976 fps
    Color space                 : YUV
    Chroma subsampling          : 4:2:0
    Bit depth                   : 8 bits
    Bits/(Pixel*Frame)          : 0.039
    Stream size                 : 1.30 GiB (45%)
    Writing library             : x265 1.9:[Windows][GCC 4.9.0][64 bit] 8bit
    Encoding settings           : wpp / ctu=64 / min-cu-size=8 / max-tu-size=32 / tu-intra-depth=1 / tu-inter-depth=1 / me=3 / subme=3 / merange=57 / rect / no-amp / max-merge=3 / temporal-mvp / no-early-skip / rdpenalty=0 / no-tskip / no-tskip-fast / strong-intra-smoothing / no-lossless / no-cu-lossless / no-constrained-intra / no-fast-intra / open-gop / no-temporal-layers / interlace=0 / keyint=240 / min-keyint=24 / scenecut=40 / rc-lookahead=25 / lookahead-slices=4 / bframes=4 / bframe-bias=0 / b-adapt=2 / ref=4 / limit-refs=3 / limit-modes / weightp / no-weightb / aq-mode=1 / qg-size=32 / aq-strength=1.00 / cbqpoffs=0 / crqpoffs=0 / rd=4 / psy-rd=2.00 / rdoq-level=2 / psy-rdoq=1.00 / signhide / deblock / sao / no-sao-non-deblock / b-pyramid / cutree / no-intra-refresh / rc=crf / crf=20.0 / qcomp=0.60 / qpmin=0 / qpmax=51 / qpstep=4 / ipratio=1.40 / pbratio=1.30
    Default                     : Yes
    Forced                      : No
    Color range                 : Limited
    Color primaries             : BT.709
    Transfer characteristics    : BT.709
    Matrix coefficients         : BT.709
    DURATION                    : 01:34:50.018000000
    NUMBER_OF_FRAMES            : 136424
    NUMBER_OF_BYTES             : 1421147810
    _STATISTICS_WRITING_APP     : mkvmerge v8.6.1 ('Flying') 64bit
    _STATISTICS_WRITING_DATE_UT : 2017-02-18 23:19:39
    _STATISTICS_TAGS            : BPS DURATION NUMBER_OF_FRAMES NUMBER_OF_BYTES

    Audio #1
    ID                          : 2
    Format                      : DTS
    Format/Info                 : Digital Theater Systems
    Mode                        : 16
    Format settings, Endianness : Big
    Codec ID                    : A_DTS
    Duration                    : 1h 34mn
    Bit rate mode               : Constant
    Bit rate                    : 768 Kbps
    Channel(s)                  : 6 channels
    Channel positions           : Front: L C R, Side: L R, LFE
    Sampling rate               : 48.0 KHz
    Bit depth                   : 24 bits
    Compression mode            : Lossy
    Delay relative to video     : -83ms
    Stream size                 : 521 MiB (18%)
    Title                       : Español Latino DTS 5.1 [768 Kbps]
    Language                    : Spanish
    Default                     : Yes
    Forced                      : No

    Audio #2
    ID                          : 3
    Format                      : DTS
    Format/Info                 : Digital Theater Systems
    Mode                        : 16
    Format settings, Endianness : Big
    Codec ID                    : A_DTS
    Duration                    : 1h 34mn
    Bit rate mode               : Constant
    Bit rate                    : 1 509 Kbps
    Channel(s)                  : 6 channels
    Channel positions           : Front: L C R, Side: L R, LFE
    Sampling rate               : 48.0 KHz
    Bit depth                   : 24 bits
    Compression mode            : Lossy
    Delay relative to video     : -83ms
    Stream size                 : 1 024 MiB (35%)
    Title                       : Inglés DTS 5.1 [1509 Kbps]
    Language                    : English
    Default                     : No
    Forced                      : No

    Text
    ID                          : 4
    Format                      : PGS
    Codec ID                    : S_HDMV/PGS
    Codec ID/Info               : Picture based subtitle format used on BDs/HD-DVDs
    Title                       : Subtítulos Español Latino [PGS]
    Language                    : Spanish
    Default                     : No
    Forced                      : No

    Menu
    00:00:00.000                : :Chapter 1
    00:05:53.311                : :Chapter 2
    00:11:00.826                : :Chapter 3
    00:16:22.940                : :Chapter 4
    00:20:14.296                : :Chapter 5
    00:25:34.783                : :Chapter 6
    00:29:40.528                : :Chapter 7
    00:33:51.446                : :Chapter 8
    00:36:57.214                : :Chapter 9
    00:41:20.102                : :Chapter 10
    00:44:49.895                : :Chapter 11
    00:52:09.417                : :Chapter 12
    01:00:33.629                : :Chapter 13
    01:05:54.241                : :Chapter 14
    01:13:18.060                : :Chapter 15
    01:17:48.580                : :Chapter 16
    01:21:58.288                : :Chapter 17
    01:25:43.304                : :Chapter 18

  • Peso: 2.86 GB

Sinopsis

Descargar Bad Santa 2 (2016) 1080p Latino Impulsado por el whisky barato, la codicia y el odio, Willie Soke (Billy Bob Thornton) se unió a su pareja poco enojado, Marcus, una organización benéfica de Chicago a derrotar la víspera de Navidad. Viajar es gordo y feliz Merman de Thurman, un rayo de sol 250 libras, la picadura de Willie conduce a la humanidad. Mamá problemas surgen cuando el par de Willie historia de terror de una madre, Sunny Soke, elevar el nivel de ambición de la banda se unen mientras que las normas un poco más débil comportamiento criminal.

Ficha técnica

Imágenes, Capturas de la película

Video trailer de la película

Enlaces de descarga

Descargar
Descargar Bad Santa 2 (2016) 1080p Latino

dpeliculas

Aportes de DPeliculasHDmega la pass es:dpeliculashdmega.org Aportes de CinemaniaHD la pass es:cinemaniahdd.com
Guardado en : 1080p x265 HEVC , Comedia , Crimen , Drama

PelícuDelas relacionadas

  • Ahora me ves 2 (2016) 2160p 4K UHD HDR Latino-Ingles

    2016
    Ahora me ves 2 (2016) 2160p 4K UHD HDR Latino-Ingles

    0.0 1h 55m 2016

    Descargar gratis Ahora me ves 2 (2016) 2160p 4K UHD HDR Latino-Ingles. Un año dspués de despistar al...

    Director: Jon M. Chu

    Género: Acción

    Actores: Zoey Callandria Jones

  • La guerra del planeta de los simios (2017) Full 1080p Latino

    2017
    La guerra del planeta de los simios (2017) Full 1080p Latino

    5.0 2 h 20 min 2017

    César (Andy Serkis) jura que no comenzó la guerra. Pero él y su nación de simios genéticamente evolucionados...

    Director: Matt Reeves

    Género: Ciencia ficción

    Actores: Woody Harrelson

  • Money (2016) 1080p latino

    2016
    Money (2016) 1080p latino

    0.0 1h 26m 2016

    Dos ricos hombres de negocios están a punto de llevarse 5 millones de dólares, dinero malversado que...

    Director: Martín Rosete

    Género: Crimen

    Actores: Lucía Guerrero

Comentarios 4
  • leonidas - 20 abril, 2017

    Gracias por el aporte

  • RuddyYankee - 26 febrero, 2017

    Amigo, y la 1ra está en la antigua página o la subirán por aquí ?

  • Snake - 19 febrero, 2017

    Bro no esta el subtitulo en Ingles, no mientas en la descripcion, me hiciste gastar mi tiempo.

    • dpelis

      Administrador
      - 19 febrero, 2017

      estimado. bueno pedimos disculpa. pero los subtitulos no es una perdida de tiempo, no es para que mencione que es su perdida de tiempo. que no pesan GBs. Los puede bajar de aqui https://goo.gl/gPZcem Saludos