Baby Driver (2017) WEBDL 1080p Subtitulada

1.364 vistas
1 estrella2 estrellas3 estrellas4 estrellas5 estrellas (1 votos, promedio: 4,00 de 5)
Cargando…

Información de Baby Driver (2017) WEBDL 1080p Subtitulada

Datos de la película

  • Calidad: WEBDL
  • Audio: Ingles AC3 5.1 iTunes
  • Subtitulos: Español Latino SRT
  • Resolución: 1920x804p
  • Formato: MKV
  • Codec: H.264
  • Encoder: Dpelis
  • Mediainfo: Ver Ver
  • \Baby Driver (2017) WEBDL 1080p Subtitulada.mkv
    Format                      : Matroska
    Format version              : Version 4 / Version 2
    File size                   : 3.87 GiB
    Duration                    : 1 h 52 min
    Overall bit rate            : 4 912 kb/s
    Movie name                  : DPeliculasHDMega.ORG
    Encoded date                : UTC 2017-09-12 11:16:46
    Writing application         : mkvmerge v10.0.0 ('To Drown In You') 64bit
    Writing library             : libebml v1.3.4 + libmatroska v1.4.5
    Cover                       : Yes
    Attachments                 : cover_land.jpg / small_cover.jpg / small_cover_land.jpg / cover.jpg

    Video
    ID                          : 1
    Format                      : AVC
    Format/Info                 : Advanced Video Codec
    Format profile              : [email protected]
    Format settings, CABAC      : Yes
    Format settings, RefFrames  : 5 frames
    Codec ID                    : V_MPEG4/ISO/AVC
    Duration                    : 1 h 52 min
    Bit rate                    : 4 526 kb/s
    Width                       : 1 920 pixels
    Height                      : 804 pixels
    Display aspect ratio        : 2.40:1
    Frame rate mode             : Constant
    Frame rate                  : 23.976 (24000/1001) FPS
    Color space                 : YUV
    Chroma subsampling          : 4:2:0
    Bit depth                   : 8 bits
    Scan type                   : Progressive
    Bits/(Pixel*Frame)          : 0.122
    Stream size                 : 3.56 GiB (92%)
    Language                    : English
    Default                     : Yes
    Forced                      : No
    Color range                 : Limited
    Color primaries             : BT.709
    Transfer characteristics    : BT.709
    Matrix coefficients         : BT.709

    Audio
    ID                          : 2
    Format                      : AC-3
    Format/Info                 : Audio Coding 3
    Format settings, Endianness : Big
    Codec ID                    : A_AC3
    Duration                    : 1 h 52 min
    Bit rate mode               : Constant
    Bit rate                    : 384 kb/s
    Channel(s)                  : 6 channels
    Channel positions           : Front: L C R, Side: L R, LFE
    Sampling rate               : 48.0 kHz
    Frame rate                  : 31.250 FPS (1536 SPF)
    Bit depth                   : 16 bits
    Compression mode            : Lossy
    Delay relative to video     : -42 ms
    Stream size                 : 309 MiB (8%)
    Language                    : English
    Service kind                : Complete Main
    Default                     : Yes
    Forced                      : No

    Text
    ID                          : 3
    Format                      : UTF-8
    Codec ID                    : S_TEXT/UTF8
    Codec ID/Info               : UTF-8 Plain Text
    Duration                    : 1 h 49 min
    Bit rate                    : 63 b/s
    Count of elements           : 1592
    Stream size                 : 50.6 KiB (0%)
    Language                    : Spanish
    Default                     : Yes
    Forced                      : No

    Menu
    00:00:00.000                : en:1
    00:09:10.258                : en:2
    00:13:29.684                : en:3
    00:20:57.381                : en:4
    00:33:07.110                : en:5
    00:43:42.453                : en:6
    00:48:14.850                : en:7
    00:53:38.757                : en:8
    00:58:51.111                : en:9
    01:05:22.752                : en:10
    01:11:33.289                : en:11
    01:19:16.210                : en:12
    01:27:38.879                : en:13
    01:30:29.883                : en:14
    01:34:20.613                : en:15
    01:43:29.620                : en:16

  • Peso: 3.87 GB

Sinopsis

Baby, un joven y talentoso conductor especializado en fugas (Ansel Elgort), depende del ritmo de su banda sonora personal para ser el mejor en lo suyo. Cuando conoce a la chica de sus sueños (Lily James), Baby ve una oportunidad de abandonar su vida criminal y realizar una huida limpia. Pero después de haber sido forzado a trabajar para un jefe del crimen (Kevin Spacey), deberá dar la cara cuando un malogrado golpe amenaza su vida, su amor y su libertad.

Ficha técnica

  • Titulo original: Baby Driver
  • Fecha de lanzamiento: 28-06-2017 (United Kingdom, United States of America)
  • Director: Edgar Wright
  • Género: Acción, Crimen
  • Puntuación: 4.0 1 votos
  • Duración:
    1h 55m

Imágenes, Capturas de la película

Video trailer de la película

Enlaces de descarga

Descargar Baby Driver (2017) WEBDL 1080p Subtitulada
Descargar

dpeliculas

Aportes de DPeliculasHDmega la pass es:dpeliculashdmega.org Aportes de CinemaniaHD la pass es:cinemaniahdd.com
Guardado en : Acción , Crimen

PelícuDelas relacionadas

  • La momia (2017) 3D OU 1080p Latino

    2017
    La momia (2017) 3D OU 1080p Latino

    0.0 1h 50m 2017

    Descargar gratis La momia (2017) 3D OU 1080p Latino. A pesar de estar enterrada en una tumba en lo más...

    Director: Jo Beckett

    Género: 3D Half OU

    Actores: Vera Chok

  • El silencio de los corderos (1991) Full 1080p Latino

    1991
    El silencio de los corderos (1991) Full 1080p Latino

    5.0 1h 58m 1991

    El FBI busca a "Buffalo Bill", un asesino en serie que mata a sus víctimas, todas adolescentes, después...

    Director: Ronald M. Bozman

    Género: Crimen

    Actores: Tracey Walter

  • El Ultimo Rey (2016) 1080p Latino

    2016
    El Ultimo Rey (2016) 1080p Latino

    0.0 1h 39m 2016

    Año 1206. Noruega ha sido arrasada por una guerra civil. El Rey está muriendo, y mientras su hijo no...

    Director: Nils Gaup

    Género: Acción

    Actores: Torkel Dommersnes Soldal

Comentarios 4
  • Elías - 12 septiembre, 2017

    ¿Pondrás links para descargar en 1Fichier?

    • dpelis

      Administrador
      - 13 septiembre, 2017

      no estimado ya que no descargan muchos y se me acumula mucho espacio en la cuenta

      • Aldair Jesus - 13 septiembre, 2017

        Rayos, yo a veces descargaba en 1fichier, aunque en los ultimos dias si llegue a tener problemas con las descargas en ese servidosr, ya que la velocidad de descarga bajaba a cero y luego se paraban porque si.

        • dpelis

          Administrador
          - 13 septiembre, 2017

          si baja lento tabn me esta pasando