Atypical (2017) Temporada 1 WEBDL 1080p Latino

1.681 vistas
1 estrella2 estrellas3 estrellas4 estrellas5 estrellas (1 votos, promedio: 5,00 de 5)
Cargando…

Información de Atypical (2017) Temporada 1 WEBDL 1080p Latino

Datos de la película

  • Calidad: WEBDL
  • Audio: Español Latino AC3 5.1 Netflix - Ingles AC3 5.1 Netflix
  • Subtitulos: Español Latino SRT - Ingles SRT
  • Resolución: 1920x1080p
  • Formato: MKV
  • Codec: H.264
  • Encoder: Dpelis
  • Mediainfo: Ver Ver
  • Atypical S01E01 WEBDL 1080p Latino.mkv
    Format                      : Matroska
    Format version              : Version 4 / Version 2
    File size                   : 1.07 GiB
    Duration                    : 38 min 4 s
    Overall bit rate            : 4 006 kb/s
    Movie name                  : DPeliculasHDMega.ORG
    Encoded date                : UTC 2017-08-16 21:19:29 / UTC 2017-08-16T20:46:45Z
    Writing application         : mkvmerge v10.0.0 ('To Drown In You') 64bit
    Writing library             : libebml v1.3.4 + libmatroska v1.4.5 / Lavf57.7.2

    Video
    ID                          : 1
    Format                      : AVC
    Format/Info                 : Advanced Video Codec
    Format profile              : [email protected]
    Format settings, CABAC      : Yes
    Format settings, ReFrames   : 4 frames
    Codec ID                    : V_MPEG4/ISO/AVC
    Duration                    : 38 min 4 s
    Bit rate                    : 3 500 kb/s
    Width                       : 1 920 pixels
    Height                      : 1 080 pixels
    Display aspect ratio        : 16:9
    Frame rate mode             : Constant
    Frame rate                  : 23.976 (24000/1001) FPS
    Color space                 : YUV
    Chroma subsampling          : 4:2:0
    Bit depth                   : 8 bits
    Scan type                   : Progressive
    Bits/(Pixel*Frame)          : 0.070
    Stream size                 : 912 MiB (84%)
    Writing library             : x264 core 148 r2708 86b7198
    Encoding settings           : cabac=1 / ref=3 / deblock=1:0:0 / analyse=0x3:0x113 / me=hex / subme=7 / psy=1 / psy_rd=1.00:0.00 / mixed_ref=1 / me_range=16 / chroma_me=1 / trellis=1 / 8x8dct=1 / cqm=0 / deadzone=21,11 / fast_pskip=1 / chroma_qp_offset=-2 / threads=12 / lookahead_threads=2 / sliced_threads=0 / nr=0 / decimate=1 / interlaced=0 / bluray_compat=0 / constrained_intra=0 / bframes=3 / b_pyramid=2 / b_adapt=1 / b_bias=0 / direct=1 / weightb=1 / open_gop=0 / weightp=2 / keyint=240 / keyint_min=24 / scenecut=40 / intra_refresh=0 / rc_lookahead=40 / rc=abr / mbtree=1 / bitrate=3500 / ratetol=1.0 / qcomp=0.60 / qpmin=0 / qpmax=69 / qpstep=4 / vbv_maxrate=62500 / vbv_bufsize=78125 / nal_hrd=none / filler=0 / ip_ratio=1.40 / aq=1:1.00
    Default                     : Yes
    Forced                      : No
    Color range                 : Limited
    Color primaries             : BT.709
    Transfer characteristics    : BT.709
    Matrix coefficients         : BT.709
    Statistics Tags Issue       : mkvmerge v10.0.0 ('To Drown In You') 64bit 2017-08-16 21:19:29 / mkvmerge v10.0.0 ('To Drown In You') 64bit 2017-08-16 21:19:29 / UTC 2017-08-16T20:46:45Z
    FromStats_BitRate           : 3427506
    FromStats_Duration          : 00:38:04.658000000
    FromStats_FrameCount        : 54777
    FromStats_StreamSize        : 978835110

    Audio #1
    ID                          : 2
    Format                      : E-AC-3
    Format/Info                 : Enhanced Audio Coding 3
    Format settings, Endianness : Big
    Codec ID                    : A_EAC3
    Duration                    : 38 min 4 s
    Bit rate mode               : Constant
    Bit rate                    : 192 kb/s
    Channel(s)                  : 6 channels
    Channel positions           : Front: L C R, Side: L R, LFE
    Sampling rate               : 48.0 kHz
    Frame rate                  : 187.500 FPS (256 spf)
    Compression mode            : Lossy
    Stream size                 : 52.3 MiB (5%)
    Language                    : Spanish
    Service kind                : Complete Main
    Default                     : Yes
    Forced                      : No
    Statistics Tags Issue       : mkvmerge v10.0.0 ('To Drown In You') 64bit 2017-08-16 21:19:29 / mkvmerge v10.0.0 ('To Drown In You') 64bit 2017-08-16 21:19:29 / UTC 2017-08-16T20:46:45Z
    FromStats_BitRate           : 192000
    FromStats_Duration          : 00:38:04.832000000
    FromStats_FrameCount        : 71401
    FromStats_StreamSize        : 54835968

    Audio #2
    ID                          : 3
    Format                      : AC-3
    Format/Info                 : Audio Coding 3
    Format settings, Endianness : Big
    Codec ID                    : A_AC3
    Duration                    : 38 min 4 s
    Bit rate mode               : Constant
    Bit rate                    : 384 kb/s
    Channel(s)                  : 6 channels
    Channel positions           : Front: L C R, Side: L R, LFE
    Sampling rate               : 48.0 kHz
    Frame rate                  : 31.250 FPS (1536 spf)
    Bit depth                   : 16 bits
    Compression mode            : Lossy
    Stream size                 : 105 MiB (10%)
    Title                       : Surround
    Language                    : English
    Service kind                : Complete Main
    Default                     : No
    Forced                      : No
    Statistics Tags Issue       : mkvmerge v10.0.0 ('To Drown In You') 64bit 2017-08-16 21:19:29 / mkvmerge v10.0.0 ('To Drown In You') 64bit 2017-08-16 21:19:29 / UTC 2017-08-16T20:46:45Z
    FromStats_BitRate           : 384000
    FromStats_Duration          : 00:38:04.832000000
    FromStats_FrameCount        : 71401
    FromStats_StreamSize        : 109671936

    Text #1
    ID                          : 4
    Format                      : ASS
    Codec ID                    : S_TEXT/ASS
    Codec ID/Info               : Advanced Sub Station Alpha
    Compression mode            : Lossless
    Language                    : English
    Default                     : No
    Forced                      : No
    Statistics Tags Issue       : mkvmerge v10.0.0 ('To Drown In You') 64bit 2017-08-16 21:19:29 / mkvmerge v10.0.0 ('To Drown In You') 64bit 2017-08-16 21:19:29 / UTC 2017-08-16T20:46:45Z
    FromStats_BitRate           : 149
    FromStats_Duration          : 00:36:56.335000000
    FromStats_FrameCount        : 739
    FromStats_StreamSize        : 41371

    Text #2
    ID                          : 5
    Format                      : ASS
    Codec ID                    : S_TEXT/ASS
    Codec ID/Info               : Advanced Sub Station Alpha
    Compression mode            : Lossless
    Language                    : Spanish
    Default                     : No
    Forced                      : No
    Statistics Tags Issue       : mkvmerge v10.0.0 ('To Drown In You') 64bit 2017-08-16 21:19:29 / mkvmerge v10.0.0 ('To Drown In You') 64bit 2017-08-16 21:19:29 / UTC 2017-08-16T20:46:45Z
    FromStats_BitRate           : 130
    FromStats_Duration          : 00:37:29.454000000
    FromStats_FrameCount        : 648
    FromStats_StreamSize        : 36813

  • Peso: 1.05 GB c/u (1 Capitulo Disponible)

Sinopsis

Descargar Serie de Netflix HD Latino, Atypical hd es una serie de Netflix con idioma Latino 5.1 La historia gira en torno a Sam, una joven de 18 años de edad que es autista. Para ella, el autismo no es un problema y quiere aprender a valerse por sí misma y tener una vida independiente. Así es cómo ella decide comenzar su divertido y doloroso viaje de autodescubrimiento que, sin querer, acaba implicando a toda su familia. Ellos se toman este cambio como pueden, algunos intentan ayudar mientras otros se mantienen al amrgen. Finalmente solo podrán observar a Sam y recorrer ese camino con ella mientras, poco a poco, todos comienzan a hacerse una pregunta: ¿qué significa realmente ser normal?

Atypical está protagonizada por Jennifer Jason Leigh (Los odiosos ocho), Keir Gilchrist (Una historia casi divertida) y Michael Rapaport (Justified: la ley de Raylan). La ficción de Netflix ha sido creada por Robia Rashid (Cómo conocí a vuestra madre, Will & Grace) y el epidosio piloto lo dirige Seth Gordon (The Goldbergs). Ambos son productores ejecutivos junto a Mary Rohlich y Jennifer Jason Leigh.

Ficha técnica

  • Titulo original: Atypical
  • Fecha de lanzamiento: 16-08-2017 (United States of America)
  • Director: Robia Rashid
  • Género: Comedia, Series
  • Puntuación: 5.0 1 votos
  • Duración:
    0h 33m

Imágenes, Capturas de la película

Video trailer de la película

Enlaces de descarga

Descargar Atypical (2017) Temporada 1 WEBDL 1080p Latino
Descargar

dpeliculas

Aportes de DPeliculasHDmega la pass es:dpeliculashdmega.org Aportes de CinemaniaHD la pass es:cinemaniahdd.com
Guardado en : Comedia , Series

PelícuDelas relacionadas

Comentarios 0