Assassin’s Creed (2016) FULL 1080p x265 Latino

1.136 vistas
1 estrella2 estrellas3 estrellas4 estrellas5 estrellas (1 votos, promedio: 1,00 de 5)
Cargando…

Información de Assassin’s Creed (2016) FULL 1080p x265 Latino

Datos de la película

  • Calidad: Full 1080p
  • Audio: Español Latino AC3 5.1 BLURAY - Ingles DTS 5.1 BLURAY
  • Subtitulos: Español Latino PGS
  • Resolución: 1920x1080p
  • Formato: MKV
  • Codec: H.265
  • Encoder:
  • Mediainfo: Ver Ver
  • Assassin's Creed (2016) 1080p BluRay x265 HEVC DTS Dual Latino.mkv
    Format                      : Matroska
    Format version              : Version 4 / Version 2
    File size                   : 2.83 GiB
    Duration                    : 1h 55mn
    Overall bit rate            : 3 509 Kbps
    Encoded date                : UTC 2017-04-15 19:02:28
    Writing application         : mkvmerge v8.6.1 ('Flying') 64bit
    Writing library             : libebml v1.3.3 + libmatroska v1.4.4
    DURATION                    : 01:53:58.207000000
    NUMBER_OF_FRAMES            : 1136
    NUMBER_OF_BYTES             : 10051480
    _STATISTICS_WRITING_APP     : mkvmerge v8.6.1 ('Flying') 64bit
    _STATISTICS_WRITING_DATE_UT : 2017-04-15 19:02:28
    _STATISTICS_TAGS            : BPS DURATION NUMBER_OF_FRAMES NUMBER_OF_BYTES

    Video
    ID                          : 1
    Format                      : HEVC
    Format/Info                 : High Efficiency Video Coding
    Format profile              : [email protected]@Main
    Codec ID                    : V_MPEGH/ISO/HEVC
    Duration                    : 1h 55mn
    Bit rate                    : 1 482 Kbps
    Width                       : 1 920 pixels
    Height                      : 1 080 pixels
    Display aspect ratio        : 16:9
    Frame rate mode             : Constant
    Frame rate                  : 23.976 fps
    Color space                 : YUV
    Chroma subsampling          : 4:2:0
    Bit depth                   : 8 bits
    Bits/(Pixel*Frame)          : 0.030
    Stream size                 : 1.20 GiB (42%)
    Writing library             : x265 2.1:[Windows][GCC 5.4.0][64 bit] 8bit
    Encoding settings           : wpp / ctu=64 / min-cu-size=8 / max-tu-size=32 / tu-intra-depth=1 / tu-inter-depth=1 / me=3 / subme=3 / merange=57 / rect / no-amp / max-merge=3 / temporal-mvp / no-early-skip / rskip / rdpenalty=0 / no-tskip / no-tskip-fast / strong-intra-smoothing / no-lossless / no-cu-lossless / no-constrained-intra / no-fast-intra / open-gop / no-temporal-layers / interlace=0 / keyint=240 / min-keyint=24 / scenecut=40 / rc-lookahead=25 / lookahead-slices=4 / bframes=4 / bframe-bias=0 / b-adapt=2 / ref=4 / limit-refs=3 / limit-modes / weightp / no-weightb / aq-mode=1 / qg-size=32 / aq-strength=1.00 / cbqpoffs=0 / crqpoffs=0 / rd=4 / psy-rd=2.00 / rdoq-level=2 / psy-rdoq=1.00 / log2-max-poc-lsb=8 / no-rd-refine / signhide / deblock=0:0 / sao / no-sao-non-deblock / b-pyramid / cutree / no-intra-refresh / rc=crf / crf=20.0 / qcomp=0.60 / qpmin=0 / qpmax=69 / qpstep=4 / ipratio=1.40 / pbratio=1.30
    Default                     : Yes
    Forced                      : No
    Color range                 : Limited
    Color primaries             : BT.709
    Transfer characteristics    : BT.709
    Matrix coefficients         : BT.709
    DURATION                    : 01:55:30.966000000
    NUMBER_OF_FRAMES            : 166176
    NUMBER_OF_BYTES             : 1332199956
    _STATISTICS_WRITING_APP     : mkvmerge v8.6.1 ('Flying') 64bit
    _STATISTICS_WRITING_DATE_UT : 2017-04-15 19:02:28
    _STATISTICS_TAGS            : BPS DURATION NUMBER_OF_FRAMES NUMBER_OF_BYTES

    Audio #1
    ID                          : 2
    Format                      : AC-3
    Format/Info                 : Audio Coding 3
    Mode extension              : CM (complete main)
    Format settings, Endianness : Big
    Codec ID                    : A_AC3
    Duration                    : 1h 55mn
    Bit rate mode               : Constant
    Bit rate                    : 448 Kbps
    Channel(s)                  : 6 channels
    Channel positions           : Front: L C R, Side: L R, LFE
    Sampling rate               : 48.0 KHz
    Compression mode            : Lossy
    Stream size                 : 370 MiB (13%)
    Title                       : Español Latino AC3 5.1 [448 Kbps]
    Language                    : Spanish
    Default                     : Yes
    Forced                      : No

    Audio #2
    ID                          : 3
    Format                      : DTS
    Format/Info                 : Digital Theater Systems
    Mode                        : 16
    Format settings, Endianness : Big
    Codec ID                    : A_DTS
    Duration                    : 1h 55mn
    Bit rate mode               : Constant
    Bit rate                    : 1 509 Kbps
    Channel(s)                  : 6 channels
    Channel positions           : Front: L C R, Side: L R, LFE
    Sampling rate               : 48.0 KHz
    Bit depth                   : 24 bits
    Compression mode            : Lossy
    Stream size                 : 1.22 GiB (43%)
    Title                       : Inglés DTS 5.1 [1509 Kbps]
    Language                    : English
    Default                     : No
    Forced                      : No

    Text #1
    ID                          : 4
    Format                      : UTF-8
    Codec ID                    : S_TEXT/UTF8
    Codec ID/Info               : UTF-8 Plain Text
    Title                       : Subtítulos Español Latino - Forzados [SRT]
    Language                    : Spanish
    Default                     : No
    Forced                      : Yes

    Text #2
    ID                          : 5
    Format                      : PGS
    Codec ID                    : S_HDMV/PGS
    Codec ID/Info               : Picture based subtitle format used on BDs/HD-DVDs
    Title                       : Subtítulos Español Latino [PGS]
    Language                    : Spanish
    Default                     : No
    Forced                      : No

    Menu
    00:00:00.000                : :Chapter 1
    00:06:04.155                : :Chapter 2
    00:09:32.697                : :Chapter 3
    00:12:47.517                : :Chapter 4
    00:16:47.715                : :Chapter 5
    00:21:07.433                : :Chapter 6
    00:26:56.448                : :Chapter 7
    00:31:55.080                : :Chapter 8
    00:38:06.284                : :Chapter 9
    00:41:43.167                : :Chapter 10
    00:46:33.040                : :Chapter 11
    00:50:10.257                : :Chapter 12
    00:53:04.390                : :Chapter 13
    00:56:17.624                : :Chapter 14
    00:59:26.480                : :Chapter 15
    01:02:32.582                : :Chapter 16
    01:06:37.035                : :Chapter 17
    01:13:08.759                : :Chapter 18
    01:18:45.888                : :Chapter 19
    01:23:01.101                : :Chapter 20
    01:30:17.996                : :Chapter 21
    01:34:18.194                : :Chapter 22
    01:37:45.193                : :Chapter 23
    01:40:51.003                : :Chapter 24

  • Peso: 2.83 GB

Sinopsis

Gracias a una revolucionaria tecnología que desbloquea los recuerdos genéticos, Callum Lynch (Michael Fassbender) vive las aventuras de su ancestro, Aguilar, en la España del siglo XV. Callum descubre que es el descendiente de una misteriosa sociedad secreta, los Asesinos, y que posee increíbles conocimientos y habilidades que le permitirán enfrentarse a la poderosa y opresora organización de los Templarios en el presente.

Ficha técnica

Imágenes, Capturas de la película

Video trailer de la película

Enlaces de descarga

Descargar
Descargar Assassin’s Creed (2016) FULL 1080p x265 Latino

dpeliculas

Aportes de DPeliculasHDmega la pass es:dpeliculashdmega.org Aportes de CinemaniaHD la pass es:cinemaniahdd.com

PelícuDelas relacionadas

  • La momia (2017) Webdl 1080p Latino

    2017
    La momia (2017) Webdl 1080p Latino

    4.0 1h 50m 2017

    Descargar La momia 2017 1080p webdl  Latino, esta pelicula estara disponible con audio latino final...

    Director: Jo Beckett

    Género: Acción

    Actores: Vera Chok

  • Batman & Harley Quinn (2017) Full Latino

    2017
    Batman & Harley Quinn (2017) Full Latino

    0.0 0h 0m 2017

    Descargar gratis Batman & Harley Quinn (2017) Full Latino. Batman y Nighwing debrán unir fuerzas...

    Director: Sam Liu

    Género: Acción

    Actores: Trevor Devall

  • Spark: A Space Tail (2016) 1080p Latino

    2017
    Spark: A Space Tail (2016) 1080p Latino

    0.0 1h 30m 2017

    Hace 13 años el malvado General Zhong tomó el control del planeta Bana. Ahora no solo quiere gobernar...

    Director: Aaron Woodley

    Género: Animación

    Actores: Susan Sarandon

  • Batman & Harley Quinn (2017) 1080p Latino

    2017
    Batman & Harley Quinn (2017) 1080p Latino

    0.0 1h 14m 2017

    Warner Bros. ha lanzado la portada o cubierta, así coImagen carátula de Batman and Harley Quinnmo la...

    Género: Acción

    Actores: Trevor Devall

Comentarios 1
  • leonidas - 20 Abril, 2017

    Gracias por el aporte, este formato esta barbaro, gracias