Advertise here

Arrow (2017) Temporada 6 WEBDL 1080p Latino

1.749 vistas
1 estrella2 estrellas3 estrellas4 estrellas5 estrellas (1 votos, promedio: 5,00 de 5)
Cargando…

Información de Arrow (2017) Temporada 6 WEBDL 1080p Latino

Datos de la película

  • Calidad: WEBDL
  • Audio: Se especifica abajo de la Sinopsis
  • Subtitulos: Español Latino SRT
  • Resolución: 1920x1080p
  • Formato: MKV
  • Codec: H.264
  • Encoder: Dpelis
  • Mediainfo: Clic para Mostrar Datos Ver
  • Format                                   : Matroska
    Format version                           : Version 4 / Version 2
    File size                                : 1.30 GiB
    Duration                                 : 42 min 23 s
    Overall bit rate                         : 4 379 kb/s
    Movie name                               : DPeliculasHDMega.ORG
    Encoded date                             : UTC 2017-11-06 04:59:57 / UTC 2017-10-14T21:54:35Z
    Writing application                      : mkvmerge v15.0.0 ('Duel with the Devil') 64-bit
    Writing library                          : libebml v1.3.5 + libmatroska v1.4.5 / Lavf57.7.2

    Video
    ID                                       : 1
    Format                                   : AVC
    Format/Info                              : Advanced Video Codec
    Format profile                           : [email protected]
    Format settings                          : CABAC / 4 Ref Frames
    Format settings, CABAC                   : Yes
    Format settings, RefFrames               : 4 frames
    Codec ID                                 : V_MPEG4/ISO/AVC
    Duration                                 : 42 min 23 s
    Bit rate                                 : 3 500 kb/s
    Width                                    : 1 920 pixels
    Height                                   : 1 080 pixels
    Display aspect ratio                     : 16:9
    Frame rate mode                          : Constant
    Frame rate                               : 23.976 (24000/1001) FPS
    Color space                              : YUV
    Chroma subsampling                       : 4:2:0
    Bit depth                                : 8 bits
    Scan type                                : Progressive
    Bits/(Pixel*Frame)                       : 0.070
    Stream size                              : 1.01 GiB (78%)
    Title                                    : Arrow (2017) Temporada 6 S06E01 WEBDL 1080p Latino
    Writing library                          : x264 core 148 r2708 86b7198
    Encoding settings                        : cabac=1 / ref=4 / deblock=1:0:0 / analyse=0x3:0x113 / me=umh / subme=8 / psy=1 / psy_rd=1.00:0.00 / mixed_ref=1 / me_range=16 / chroma_me=1 / trellis=1 / 8x8dct=1 / cqm=0 / deadzone=21,11 / fast_pskip=1 / chroma_qp_offset=-2 / threads=34 / lookahead_threads=5 / sliced_threads=0 / nr=0 / decimate=1 / interlaced=0 / bluray_compat=0 / constrained_intra=0 / bframes=3 / b_pyramid=2 / b_adapt=2 / b_bias=0 / direct=3 / weightb=1 / open_gop=0 / weightp=2 / keyint=240 / keyint_min=24 / scenecut=40 / intra_refresh=0 / rc_lookahead=50 / rc=abr / mbtree=1 / bitrate=3500 / ratetol=1.0 / qcomp=0.60 / qpmin=0 / qpmax=69 / qpstep=4 / vbv_maxrate=62500 / vbv_bufsize=78125 / nal_hrd=none / filler=0 / ip_ratio=1.40 / aq=1:1.00
    Language                                 : English
    Default                                  : Yes
    Forced                                   : No
    Color range                              : Limited
    Color primaries                          : BT.709
    Transfer characteristics                 : BT.709
    Matrix coefficients                      : BT.709
    Statistics Tags Issue                    : mkvmerge v15.0.0 ('Duel with the Devil') 64-bit 2017-11-06 04:59:57 / mkvmerge v15.0.0 ('Duel with the Devil') 64-bit 2017-11-06 04:59:57 / UTC 2017-10-14T21:54:35Z
    FromStats_BitRate                        : 3480594
    FromStats_Duration                       : 00:42:23.583000000
    FromStats_FrameCount                     : 60985
    FromStats_StreamSize                     : 1106647533

    Audio #1
    ID                                       : 2
    Format                                   : AC-3
    Format/Info                              : Audio Coding 3
    Format settings, Endianness              : Big
    Codec ID                                 : A_AC3
    Duration                                 : 42 min 23 s
    Bit rate mode                            : Constant
    Bit rate                                 : 256 kb/s
    Channel(s)                               : 2 channels
    Channel positions                        : Front: L R
    Sampling rate                            : 48.0 kHz
    Frame rate                               : 31.250 FPS (1536 SPF)
    Bit depth                                : 16 bits
    Compression mode                         : Lossy
    Stream size                              : 77.6 MiB (6%)
    Title                                    : Latino-AC3
    Language                                 : Spanish
    Service kind                             : Complete Main
    Default                                  : Yes
    Forced                                   : No
    Statistics Tags Issue                    : mkvmerge v15.0.0 ('Duel with the Devil') 64-bit 2017-11-06 04:59:57 / mkvmerge v15.0.0 ('Duel with the Devil') 64-bit 2017-11-06 04:59:57 / UTC 2017-10-14T21:54:35Z
    FromStats_BitRate                        : 256000
    FromStats_Duration                       : 00:42:23.392000000
    FromStats_FrameCount                     : 79481
    FromStats_StreamSize                     : 81388544

    Audio #2
    ID                                       : 3
    Format                                   : E-AC-3
    Format/Info                              : Enhanced Audio Coding 3
    Format settings, Endianness              : Big
    Codec ID                                 : A_EAC3
    Duration                                 : 42 min 23 s
    Bit rate mode                            : Constant
    Bit rate                                 : 640 kb/s
    Channel(s)                               : 6 channels
    Channel positions                        : Front: L C R, Side: L R, LFE
    Sampling rate                            : 48.0 kHz
    Frame rate                               : 187.500 FPS (256 SPF)
    Compression mode                         : Lossy
    Stream size                              : 194 MiB (15%)
    Title                                    : Ingles-AC3
    Language                                 : English
    Service kind                             : Complete Main
    Default                                  : No
    Forced                                   : No
    Statistics Tags Issue                    : mkvmerge v15.0.0 ('Duel with the Devil') 64-bit 2017-11-06 04:59:57 / mkvmerge v15.0.0 ('Duel with the Devil') 64-bit 2017-11-06 04:59:57 / UTC 2017-10-14T21:54:35Z
    FromStats_BitRate                        : 640000
    FromStats_Duration                       : 00:42:23.552000000
    FromStats_FrameCount                     : 79486
    FromStats_StreamSize                     : 203484160

    Text
    ID                                       : 4
    Format                                   : UTF-8
    Codec ID                                 : S_TEXT/UTF8
    Codec ID/Info                            : UTF-8 Plain Text
    Language                                 : Spanish
    Default                                  : No
    Forced                                   : No
    Statistics Tags Issue                    : mkvmerge v15.0.0 ('Duel with the Devil') 64-bit 2017-11-06 04:59:57 / mkvmerge v15.0.0 ('Duel with the Devil') 64-bit 2017-11-06 04:59:57 / UTC 2017-10-14T21:54:35Z
    FromStats_BitRate                        : 80
    FromStats_Duration                       : 00:41:59.140000000
    FromStats_FrameCount                     : 764
    FromStats_StreamSize                     : 25460

  • Peso: 1.25 GB C/U (3 Capitulos Disponible - Nuevo Cada Viernes)

Sinopsis

Con el futuro del equipo pendiendo de un hilo, Arrow le dio una nueva definición a la frase “explotar el espectáculo”. El enfrentamiento emocional entre Oliver Queen y Adrian Chase fue la conclusión perfecta para una quinta temporada estelar. Ahora, el enfoque cambia a descubrir el destino de cada miembro de Team Arrow. ¿Podría alguien… leer más

 

Oliver trata de equilibrar ser alcalde, GreenArrow y un padre para William. Anatoly vuelve a Star City con una agenda mortal.

 

Un corrupto equipo de back ops liderados por Onyx asalta Industrias Kord y roba algo letal. Oliver lucha por conectar con William por lo que contacta con una sorprendente fue en busca de ayuda.

Audio Latino AC3 Capturado – Creditos Alex

Ficha técnica

Video trailer de la película

Enlaces de descarga

Descargar Arrow (2017) Temporada 6 WEBDL 1080p Latino
Descargar

dpeliculas

Aportes de DPeliculasHDmega la pass es:dpeliculashdmega.org Aportes de CinemaniaHD la pass es:cinemaniahdd.com

Películas relacionadas

  • Locos por las nueces 2 (2017) 1080p Latino

    2017
    Locos por las nueces 2 (2017) 1080p Latino

    0.0 1h 35m 2017

    Continuación de Operación cacahuete en la que conoceremos las nuevas aventuras de la malhumorada ardilla...

    Director: Callan Brunker

    Género: Animación

    Actores: Will Arnett

  • Lo que de verdad importa (2017) Full 1080p Latino

    2017
    Lo que de verdad importa (2017) Full 1080p Latino

    0.0 1 h 48 min 2017

    Alex vive en Inglaterrra, trabaja arreglando aparatos eléctricos en una empresa que no va bien económicamente,...

    Director: Paco Arango

    Género: Castellano

    Actores: Suresh John

  • Open Water 3 (2017) 1080p Latino

    2017
    Open Water 3 (2017) 1080p Latino

    0.0 1 h 20 min 2017

    Tres amigos viajan a Australia con la intención de grabar un vídeo buceando entre tiburones, que les...

    Director: Gerald Rascionato

    Género: Drama

    Actores: Tara Wraith

  • El vagón de la muerte (2008) UNRATED Full 1080p Latino

    2008
    El vagón de la muerte (2008) UNRATED Full 1080p Latino

    0.0 1 h 42 min 2008

    La dueña de una exitosa galería de arte le propone al fotógrafo Leon Kauffman llevar a cabo un trabajo...

    Director: Ryûhei Kitamura

    Género: Crimen

    Actores: Vinnie Jones

Comentarios 4
  • Brian - 02 noviembre, 2017

    Hola, el capitulo 3, aparece cuando lo vas a descargar como un capitulo de la serie flash. salio mal? saludos

    • dpelis

      Administrador
      - 02 noviembre, 2017

      reparado

  • Christian - 15 octubre, 2017

    Gracias por subirlo en 1080p, espero sigan subiendo los capitulos en esta misma calidad conforme vayan saliendo, igual que los de Flash, se agradece.

    • dpelis

      Administrador
      - 15 octubre, 2017

      se agregaran