Army of One (2016) 1080p Latino

1.127 vistas
1 estrella2 estrellas3 estrellas4 estrellas5 estrellas (Ninguna valoración todavía)
Cargando…

Información de Army of One (2016) 1080p Latino

army of one 1080p latino

Datos de la película

  • Calidad: 1080p
  • Audio: Español Latino AC3 2.0 DVD - Ingles AC3 5.1 BLURAY
  • Subtitulos: Español Latino SRT - Ingles SRT
  • Resolución: 1920x800p
  • Formato: MKV
  • Codec: H.264
  • Encoder: Dpelis
  • Mediainfo: Ver Ver
  • Army of One 2016 1080p Latino.mkv
    Format                      : Matroska
    Format version              : Version 4 / Version 2
    File size                   : 2.61 GiB
    Duration                    : 1 h 32 min
    Overall bit rate            : 4 034 kb/s
    Movie name                  : DPeliculasHDMega.ORG
    Encoded date                : UTC 2017-04-17 03:32:44
    Writing application         : mkvmerge v10.0.0 ('To Drown In You') 64bit
    Writing library             : libebml v1.3.4 + libmatroska v1.4.5

    Video
    ID                          : 1
    Format                      : AVC
    Format/Info                 : Advanced Video Codec
    Format profile              : [email protected]
    Format settings, CABAC      : Yes
    Format settings, ReFrames   : 4 frames
    Codec ID                    : V_MPEG4/ISO/AVC
    Duration                    : 1 h 32 min
    Bit rate                    : 3 500 kb/s
    Width                       : 1 920 pixels
    Height                      : 804 pixels
    Display aspect ratio        : 2.40:1
    Frame rate mode             : Constant
    Frame rate                  : 23.976 (24000/1001) FPS
    Color space                 : YUV
    Chroma subsampling          : 4:2:0
    Bit depth                   : 8 bits
    Scan type                   : Progressive
    Bits/(Pixel*Frame)          : 0.095
    Stream size                 : 2.24 GiB (86%)
    Writing library             : x264 core 148 r2708 86b7198
    Encoding settings           : cabac=1 / ref=3 / deblock=1:0:0 / analyse=0x3:0x113 / me=hex / subme=7 / psy=1 / psy_rd=1.00:0.00 / mixed_ref=1 / me_range=16 / chroma_me=1 / trellis=1 / 8x8dct=1 / cqm=0 / deadzone=21,11 / fast_pskip=1 / chroma_qp_offset=-2 / threads=12 / lookahead_threads=2 / sliced_threads=0 / nr=0 / decimate=1 / interlaced=0 / bluray_compat=0 / constrained_intra=0 / bframes=3 / b_pyramid=2 / b_adapt=1 / b_bias=0 / direct=1 / weightb=1 / open_gop=0 / weightp=2 / keyint=240 / keyint_min=24 / scenecut=40 / intra_refresh=0 / rc_lookahead=40 / rc=abr / mbtree=1 / bitrate=3500 / ratetol=1.0 / qcomp=0.60 / qpmin=0 / qpmax=69 / qpstep=4 / vbv_maxrate=62500 / vbv_bufsize=78125 / nal_hrd=none / filler=0 / ip_ratio=1.40 / aq=1:1.00
    Default                     : Yes
    Forced                      : No
    Color range                 : Limited
    Color primaries             : BT.709
    Transfer characteristics    : BT.709
    Matrix coefficients         : BT.709

    Audio #1
    ID                          : 2
    Format                      : AC-3
    Format/Info                 : Audio Coding 3
    Format settings, Endianness : Big
    Codec ID                    : A_AC3
    Duration                    : 1 h 32 min
    Bit rate mode               : Constant
    Bit rate                    : 192 kb/s
    Channel(s)                  : 2 channels
    Channel positions           : Front: L R,
    Sampling rate               : 48.0 kHz
    Frame rate                  : 31.250 FPS (1536 spf)
    Bit depth                   : 16 bits
    Compression mode            : Lossy
    Delay relative to video     : 15 ms
    Stream size                 : 127 MiB (5%)
    Service kind                : Complete Main
    Default                     : Yes
    Forced                      : No

    Audio #2
    ID                          : 3
    Format                      : AC-3
    Format/Info                 : Audio Coding 3
    Format settings, Endianness : Big
    Codec ID                    : A_AC3
    Duration                    : 1 h 32 min
    Bit rate mode               : Constant
    Bit rate                    : 384 kb/s
    Channel(s)                  : 6 channels
    Channel positions           : Front: L C R, Side: L R, LFE
    Sampling rate               : 48.0 kHz
    Frame rate                  : 31.250 FPS (1536 spf)
    Bit depth                   : 16 bits
    Compression mode            : Lossy
    Delay relative to video     : -5 ms
    Stream size                 : 254 MiB (10%)
    Language                    : English
    Service kind                : Complete Main
    Default                     : No
    Forced                      : No

    Text #1
    ID                          : 4
    Format                      : UTF-8
    Codec ID                    : S_TEXT/UTF8
    Codec ID/Info               : UTF-8 Plain Text
    Duration                    : 1 h 27 min
    Bit rate                    : 86 b/s
    Count of elements           : 1367
    Stream size                 : 55.7 KiB (0%)
    Language                    : Spanish
    Default                     : Yes
    Forced                      : No

    Text #2
    ID                          : 5
    Format                      : UTF-8
    Codec ID                    : S_TEXT/UTF8
    Codec ID/Info               : UTF-8 Plain Text
    Duration                    : 1 h 32 min
    Bit rate                    : 94 b/s
    Count of elements           : 2147
    Stream size                 : 63.8 KiB (0%)
    Language                    : English
    Default                     : No
    Forced                      : No

    Menu
    00:00:00.000                : en:Chapter 1
    00:05:22.489                : en:Chapter 2
    00:10:24.124                : en:Chapter 3
    00:18:19.890                : en:Chapter 4
    00:24:16.372                : en:Chapter 5
    00:31:12.871                : en:Chapter 6
    00:36:37.654                : en:Chapter 7
    00:45:29.560                : en:Chapter 8
    00:50:29.860                : en:Chapter 9
    00:56:57.331                : en:Chapter 10
    01:02:09.809                : en:Chapter 11
    01:07:41.391                : en:Chapter 12
    01:12:15.456                : en:Chapter 13
    01:15:46.292                : en:Chapter 14
    01:20:54.433                : en:Chapter 15
    01:26:05.869                : en:Chapter 16

  • Peso: 2.61 GB

Sinopsis

Army of One 1080p Latino, está basada en la verdadera historia de Gary Faulkner, Gary Faulkner (Cage masiva) es un ex oficial, Don Chisciotte y Moderna en paro recibe una visión de Dios (marca) diciendo que la captura de Osama Bin Laden. Armado con un simple cuchillo comprado en una red comercial, Gary fue a Pakistán para cumplir su misión. Mientras que en su búsqueda, Gary cumple con los viejos amigos de vuelta a casa en Colorado, los nuevos amigos que hizo en Pakistán, los enemigos que hizo en la CIA – e incluso Osama Dieu y de ellos mismos.

Ficha técnica

  • Titulo original: Army of One
  • Fecha de lanzamiento: 04-11-2016 (United States of America)
  • Director: Larry Charles
  • Género: Comedia
  • Puntuación: 0.0 0 votos
  • Duración:
    1h 30m

Imágenes, Capturas de la película

Video trailer de la película

Enlaces de descarga

Descargar Army of One (2016) 1080p Latino
Descargar

dpeliculas

Aportes de DPeliculasHDmega la pass es:dpeliculashdmega.org Aportes de CinemaniaHD la pass es:cinemaniahdd.com
Guardado en : Comedia

PelícuDelas relacionadas

Comentarios 0