Animales Nocturnos (2016) Full 1080p Latino

880 vistas
1 estrella2 estrellas3 estrellas4 estrellas5 estrellas (Ninguna valoración todavía)
Cargando…

Información de Animales Nocturnos (2016) Full 1080p Latino

pelicula animales nocturno

Datos de la película

  • Calidad: Full 1080p
  • Audio: Español Latino DTS 5.1 BLURAY - Ingles DTS 5.1 BLURAY
  • Subtitulos: Español Latino PGS - Ingles PGS
  • Resolución: 1920x1080p
  • Formato: MKV
  • Codec: H.265
  • Encoder: SebastianHDx
  • Mediainfo: Ver Ver
  • Animales Nocturnos (2016) 1080p BluRay x265 HEVC DTS Dual Latino.mkv
    Format                      : Matroska
    Format version              : Version 4 / Version 2
    File size                   : 3.44 GiB
    Duration                    : 1h 56mn
    Overall bit rate            : 4 238 Kbps
    Encoded date                : UTC 2017-02-18 23:01:13
    Writing application         : mkvmerge v8.6.1 ('Flying') 64bit
    Writing library             : libebml v1.3.3 + libmatroska v1.4.4
    DURATION                    : 01:54:50.717000000
    NUMBER_OF_FRAMES            : 2760
    NUMBER_OF_BYTES             : 28434412
    _STATISTICS_WRITING_APP     : mkvmerge v8.6.1 ('Flying') 64bit
    _STATISTICS_WRITING_DATE_UT : 2017-02-18 23:01:13
    _STATISTICS_TAGS            : BPS DURATION NUMBER_OF_FRAMES NUMBER_OF_BYTES

    Video
    ID                          : 1
    Format                      : HEVC
    Format/Info                 : High Efficiency Video Coding
    Format profile              : [email protected]@Main
    Codec ID                    : V_MPEGH/ISO/HEVC
    Duration                    : 1h 56mn
    Bit rate                    : 1 877 Kbps
    Width                       : 1 920 pixels
    Height                      : 1 080 pixels
    Display aspect ratio        : 16:9
    Frame rate mode             : Constant
    Frame rate                  : 23.976 fps
    Color space                 : YUV
    Chroma subsampling          : 4:2:0
    Bit depth                   : 8 bits
    Bits/(Pixel*Frame)          : 0.038
    Stream size                 : 1.52 GiB (44%)
    Writing library             : x265 1.9:[Windows][GCC 4.9.0][64 bit] 8bit
    Encoding settings           : wpp / ctu=64 / min-cu-size=8 / max-tu-size=32 / tu-intra-depth=1 / tu-inter-depth=1 / me=3 / subme=3 / merange=57 / rect / no-amp / max-merge=3 / temporal-mvp / no-early-skip / rdpenalty=0 / no-tskip / no-tskip-fast / strong-intra-smoothing / no-lossless / no-cu-lossless / no-constrained-intra / no-fast-intra / open-gop / no-temporal-layers / interlace=0 / keyint=240 / min-keyint=24 / scenecut=40 / rc-lookahead=25 / lookahead-slices=4 / bframes=4 / bframe-bias=0 / b-adapt=2 / ref=4 / limit-refs=3 / limit-modes / weightp / no-weightb / aq-mode=1 / qg-size=32 / aq-strength=1.00 / cbqpoffs=0 / crqpoffs=0 / rd=4 / psy-rd=2.00 / rdoq-level=2 / psy-rdoq=1.00 / signhide / deblock / sao / no-sao-non-deblock / b-pyramid / cutree / no-intra-refresh / rc=crf / crf=20.0 / qcomp=0.60 / qpmin=0 / qpmax=51 / qpstep=4 / ipratio=1.40 / pbratio=1.30
    Default                     : Yes
    Forced                      : No
    Color range                 : Limited
    Color primaries             : BT.709
    Transfer characteristics    : BT.709
    Matrix coefficients         : BT.709
    DURATION                    : 01:56:07.920000000
    NUMBER_OF_FRAMES            : 167062
    NUMBER_OF_BYTES             : 1676836335
    _STATISTICS_WRITING_APP     : mkvmerge v8.6.1 ('Flying') 64bit
    _STATISTICS_WRITING_DATE_UT : 2017-02-18 23:01:13
    _STATISTICS_TAGS            : BPS DURATION NUMBER_OF_FRAMES NUMBER_OF_BYTES

    Audio #1
    ID                          : 2
    Format                      : DTS
    Format/Info                 : Digital Theater Systems
    Mode                        : 16
    Format settings, Endianness : Big
    Codec ID                    : A_DTS
    Duration                    : 1h 56mn
    Bit rate mode               : Constant
    Bit rate                    : 768 Kbps
    Channel(s)                  : 6 channels
    Channel positions           : Front: L C R, Side: L R, LFE
    Sampling rate               : 48.0 KHz
    Bit depth                   : 24 bits
    Compression mode            : Lossy
    Delay relative to video     : -83ms
    Stream size                 : 638 MiB (18%)
    Title                       : Español Latino DTS 5.1 [768 Kbps]
    Language                    : Spanish
    Default                     : Yes
    Forced                      : No

    Audio #2
    ID                          : 3
    Format                      : DTS
    Format/Info                 : Digital Theater Systems
    Mode                        : 16
    Format settings, Endianness : Big
    Codec ID                    : A_DTS
    Duration                    : 1h 56mn
    Bit rate mode               : Constant
    Bit rate                    : 1 509 Kbps
    Channel(s)                  : 6 channels
    Channel positions           : Front: L C R, Side: L R, LFE
    Sampling rate               : 48.0 KHz
    Bit depth                   : 24 bits
    Compression mode            : Lossy
    Delay relative to video     : -83ms
    Stream size                 : 1.22 GiB (36%)
    Title                       : Inglés DTS 5.1 [1509 Kbps]
    Language                    : English
    Default                     : No
    Forced                      : No

    Text #1
    ID                          : 4
    Format                      : UTF-8
    Codec ID                    : S_TEXT/UTF8
    Codec ID/Info               : UTF-8 Plain Text
    Title                       : Subtítulos Español Latino - Forzados [SRT]
    Language                    : Spanish
    Default                     : No
    Forced                      : Yes

    Text #2
    ID                          : 5
    Format                      : PGS
    Codec ID                    : S_HDMV/PGS
    Codec ID/Info               : Picture based subtitle format used on BDs/HD-DVDs
    Title                       : Subtítulos Español Latino - Forzados [PGS]
    Language                    : Spanish
    Default                     : No
    Forced                      : No

    Text #3
    ID                          : 6
    Format                      : PGS
    Codec ID                    : S_HDMV/PGS
    Codec ID/Info               : Picture based subtitle format used on BDs/HD-DVDs
    Title                       : Subtítulos Español Latino [PGS]
    Language                    : Spanish
    Default                     : No
    Forced                      : No

    Menu
    00:00:00.000                : :Chapter 1
    00:05:25.908                : :Chapter 2
    00:09:35.783                : :Chapter 3
    00:13:32.895                : :Chapter 4
    00:19:32.087                : :Chapter 5
    00:29:47.952                : :Chapter 6
    00:34:29.942                : :Chapter 7
    00:40:00.773                : :Chapter 8
    00:45:11.375                : :Chapter 9
    00:52:55.464                : :Chapter 10
    00:59:37.448                : :Chapter 11
    01:04:15.810                : :Chapter 12
    01:12:49.657                : :Chapter 13
    01:20:03.256                : :Chapter 14
    01:25:11.940                : :Chapter 15
    01:31:53.341                : :Chapter 16
    01:35:23.718                : :Chapter 17
    01:40:48.709                : :Chapter 18
    01:45:04.631                : :Chapter 19
    01:49:44.619                : :Chapter 20

  • Peso: 3.44 GB

Sinopsis

Descargar Animales Nocturnos (2016) 1080p Latino Cuenta la historia de Susan Morrow, una mujer, dejando a escritores inéditos después de su primer marido, ahora vive con un médico. De repente, se obtiene un paquete en el que la primera novela descubrió que su ex, el favor en un comunicado que pidió que leyera porque siempre fue su mejor crítico. Susan hace y cómo se produce en la narrativa, la novela en sí no se olvida de la historia principal, la historia en la historia hechizado a su fin, una clara señal de que Susan nueva vida le falta algo y debe explorar su pasado lo que es el lo que siempre lo hará.

Ficha técnica

Imágenes, Capturas de la película

Video trailer de la película

Enlaces de descarga

Descargar
Descargar Animales Nocturnos (2016) Full 1080p Latino

dpeliculas

Aportes de DPeliculasHDmega la pass es:dpeliculashdmega.org Aportes de CinemaniaHD la pass es:cinemaniahdd.com
Guardado en : 1080p x265 HEVC , Drama , Suspense

PelícuDelas relacionadas

  • La La Land (2016) 2160p 4K UHD Latino

    2016
    La La Land (2016) 2160p 4K UHD Latino

    0.0 2h 8m 2016

    Descargar gratis La La Land (2016) 2160p 4K UHD Latino Mega. Mia (Emma Stone), una joven aspirante a...

    Director: Peter Kohn

    Género: Comedia

    Actores: Zoë Hall

  • Interstellar (2014) IMAX Full Latino

    2014
    Interstellar (2014) IMAX Full Latino

    0.0 2h 49m 2014

    Descargar gratis Interstellar (2014) IMAX Full Latino Mega. Narra las aventuras de un grupo de exploradores...

    Director: Christopher Nolan

    Género: Aventura

    Actores: William Patrick Brown

  • La ciudad perdida Z (2017) Webdl 720p Latino

    2017
    La ciudad perdida Z (2017) Webdl 720p Latino

    0.0 2h 20m 2017

    Tras participar en una expedición topográfica de la Royal Society a Bolivia, el soldado Percy Fawcett...

    Director: Morag Cameron

    Género: Acción

    Actores: Tom Mulheron

  • Rapido y Furiosos 8 (2017) Webdl 1080p Latino

    2017
    Rapido y Furiosos 8 (2017) Webdl 1080p Latino

    4.0 2h 16m 2017

    Descargar Pelicula Rapido y Furiosos 8 1080p HDTV Cropping Latino. Empezó la carrera. Dom Toretto (Vin...

    Director: Susie Jones

    Género: Acción

    Actores: Zoya Naumchik

  • Rapido y Furiosos 8 (2017) Webdl 720p Latino

    2017
    Rapido y Furiosos 8 (2017) Webdl 720p Latino

    0.0 2h 16m 2017

    Rapidoy y Furioso 8  hd latino también conocida como Fast & Furious 8 disponible en hd latino Con...

    Director: Susie Jones

    Género: Acción

    Actores: Zoya Naumchik

Comentarios 0