Alien Covenant (2017) 1080p Full 1080p Latino

4.776 vistas
1 estrella2 estrellas3 estrellas4 estrellas5 estrellas (1 votos, promedio: 3,00 de 5)
Cargando…

Información de Alien Covenant (2017) 1080p Full 1080p Latino

Datos de la película

  • Calidad: Full 1080p
  • Audio: Español Latino AC3 5.1 BLURAY - Ingles DTS 5.1 BLURAY
  • Subtitulos: Español Latino PGS - Ingles PGS
  • Resolución: 1920x1080p
  • Formato: MKV
  • Codec: H.264
  • Encoder: Dpelis1
  • Mediainfo: Ver Ver
  • Alien Covenant (2017) Full 1080p Latino.mkv
    Format                      : Matroska
    Format version              : Version 4 / Version 2
    File size                   : 6.17 GiB
    Duration                    : 2 h 2 min
    Overall bit rate            : 7 241 kb/s
    Movie name                  : DPeliculasHDMega.ORG
    Encoded date                : UTC 2017-08-03 21:01:51 / UTC 2017-08-03T10:45:44Z
    Writing application         : mkvmerge v10.0.0 ('To Drown In You') 64bit
    Writing library             : libebml v1.3.4 + libmatroska v1.4.5 / Lavf57.7.2

    Video
    ID                          : 1
    Format                      : AVC
    Format/Info                 : Advanced Video Codec
    Format profile              : [email protected]
    Format settings, CABAC      : Yes
    Format settings, ReFrames   : 4 frames
    Codec ID                    : V_MPEG4/ISO/AVC
    Duration                    : 2 h 2 min
    Bit rate                    : 5 140 kb/s
    Width                       : 1 920 pixels
    Height                      : 1 080 pixels
    Display aspect ratio        : 16:9
    Frame rate mode             : Constant
    Frame rate                  : 23.976 (24000/1001) FPS
    Color space                 : YUV
    Chroma subsampling          : 4:2:0
    Bit depth                   : 8 bits
    Scan type                   : Progressive
    Bits/(Pixel*Frame)          : 0.103
    Stream size                 : 4.38 GiB (71%)
    Writing library             : x264 core 148 r2708 86b7198
    Encoding settings           : cabac=1 / ref=4 / deblock=1:0:0 / analyse=0x3:0x133 / me=esa / subme=10 / psy=1 / psy_rd=1.00:0.00 / mixed_ref=1 / me_range=24 / chroma_me=1 / trellis=2 / 8x8dct=1 / cqm=0 / deadzone=21,11 / fast_pskip=1 / chroma_qp_offset=-2 / threads=12 / lookahead_threads=2 / sliced_threads=0 / nr=0 / decimate=1 / interlaced=0 / bluray_compat=0 / constrained_intra=0 / bframes=8 / b_pyramid=2 / b_adapt=2 / b_bias=0 / direct=3 / weightb=1 / open_gop=0 / weightp=2 / keyint=240 / keyint_min=24 / scenecut=40 / intra_refresh=0 / rc_lookahead=60 / rc=crf / mbtree=1 / crf=20.0 / qcomp=0.60 / qpmin=0 / qpmax=69 / qpstep=4 / vbv_maxrate=62500 / vbv_bufsize=78125 / crf_max=0.0 / nal_hrd=none / filler=0 / ip_ratio=1.40 / aq=1:1.00
    Default                     : Yes
    Forced                      : No
    Color range                 : Limited
    Color primaries             : BT.709
    Transfer characteristics    : BT.709
    Matrix coefficients         : BT.709
    Statistics Tags Issue       : mkvmerge v10.0.0 ('To Drown In You') 64bit 2017-08-03 21:01:51 / mkvmerge v10.0.0 ('To Drown In You') 64bit 2017-08-03 21:01:51 / UTC 2017-08-03T10:45:44Z
    FromStats_BitRate           : 5262209
    FromStats_Duration          : 02:02:03.316000000
    FromStats_FrameCount        : 175583
    FromStats_StreamSize        : 4817102433

    Audio #1
    ID                          : 2
    Format                      : AC-3
    Format/Info                 : Audio Coding 3
    Format settings, Endianness : Big
    Codec ID                    : A_AC3
    Duration                    : 2 h 2 min
    Bit rate mode               : Constant
    Bit rate                    : 448 kb/s
    Channel(s)                  : 6 channels
    Channel positions           : Front: L C R, Side: L R, LFE
    Sampling rate               : 48.0 kHz
    Frame rate                  : 31.250 FPS (1536 spf)
    Bit depth                   : 16 bits
    Compression mode            : Lossy
    Stream size                 : 391 MiB (6%)
    Language                    : Spanish
    Service kind                : Complete Main
    Default                     : Yes
    Forced                      : No
    Statistics Tags Issue       : mkvmerge v10.0.0 ('To Drown In You') 64bit 2017-08-03 21:01:51 / mkvmerge v10.0.0 ('To Drown In You') 64bit 2017-08-03 21:01:51 / UTC 2017-08-03T10:45:44Z
    FromStats_BitRate           : 448000
    FromStats_Duration          : 02:02:03.328000000
    FromStats_FrameCount        : 228854
    FromStats_StreamSize        : 410106368

    Audio #2
    ID                          : 3
    Format                      : DTS
    Format/Info                 : Digital Theater Systems
    Format profile              : ES Matrix / Core
    Mode                        : 16
    Format settings, Endianness : Big
    Codec ID                    : A_DTS
    Duration                    : 2 h 2 min
    Bit rate mode               : Constant
    Bit rate                    : 1 509 kb/s
    Channel(s)                  : 7 channels / 6 channels
    Channel positions           : Front: L C R, Side: L R, Back: C, LFE / Front: L C R, Side: L R, LFE
    Sampling rate               : 48.0 kHz
    Frame rate                  : 93.750 FPS (512 spf)
    Bit depth                   : 24 bits
    Compression mode            : Lossy
    Stream size                 : 1.29 GiB (21%)
    Language                    : English
    Default                     : No
    Forced                      : No
    Statistics Tags Issue       : mkvmerge v10.0.0 ('To Drown In You') 64bit 2017-08-03 21:01:51 / mkvmerge v10.0.0 ('To Drown In You') 64bit 2017-08-03 21:01:51 / UTC 2017-08-03T10:45:44Z
    FromStats_BitRate           : 1508999
    FromStats_Duration          : 02:02:03.318000000
    FromStats_FrameCount        : 686561
    FromStats_StreamSize        : 1381360732

    Text #1
    ID                          : 4
    Format                      : PGS
    Muxing mode                 : zlib
    Codec ID                    : S_HDMV/PGS
    Codec ID/Info               : Picture based subtitle format used on BDs/HD-DVDs
    Language                    : Spanish
    Default                     : No
    Forced                      : No
    Statistics Tags Issue       : mkvmerge v10.0.0 ('To Drown In You') 64bit 2017-08-03 21:01:51 / mkvmerge v10.0.0 ('To Drown In You') 64bit 2017-08-03 21:01:51 / UTC 2017-08-03T10:45:44Z
    FromStats_BitRate           : 8278
    FromStats_Duration          : 02:00:34.227000000
    FromStats_FrameCount        : 2654
    FromStats_StreamSize        : 7486397

    Text #2
    ID                          : 5
    Format                      : PGS
    Muxing mode                 : zlib
    Codec ID                    : S_HDMV/PGS
    Codec ID/Info               : Picture based subtitle format used on BDs/HD-DVDs
    Language                    : English
    Default                     : No
    Forced                      : No
    Statistics Tags Issue       : mkvmerge v10.0.0 ('To Drown In You') 64bit 2017-08-03 21:01:51 / mkvmerge v10.0.0 ('To Drown In You') 64bit 2017-08-03 21:01:51 / UTC 2017-08-03T10:45:44Z
    FromStats_BitRate           : 12005
    FromStats_Duration          : 01:54:13.263000000
    FromStats_FrameCount        : 3418
    FromStats_StreamSize        : 10284746

    Text #3
    ID                          : 6
    Format                      : UTF-8
    Codec ID                    : S_TEXT/UTF8
    Codec ID/Info               : UTF-8 Plain Text
    Title                       : FORZADOS
    Language                    : Spanish
    Default                     : Yes
    Forced                      : No
    Statistics Tags Issue       : mkvmerge v10.0.0 ('To Drown In You') 64bit 2017-08-03 21:01:51 / mkvmerge v10.0.0 ('To Drown In You') 64bit 2017-08-03 21:01:51 / UTC 2017-08-03T10:45:44Z
    FromStats_BitRate           : 0
    FromStats_Duration          : 01:08:38.822000000
    FromStats_FrameCount        : 2
    FromStats_StreamSize        : 32

  • Peso: 6.17 GB

Sinopsis

Descargar gratis Alien: Covenant (2017) 1080p  Latino. Rumbo a un remoto planeta en el lado lejano de la galaxia, la tripulación de la nave colonial Covenant descubre lo que ellos piensan que es un paraíso desconocido, pero en realidad es un mundo oscuro y peligroso cuyo único habitante es el “sintético” David (Michael Fassbender), diez años después el único superviviente de la condenada expedición Prometheus…

Ficha técnica

Imágenes, Capturas de la película

Video trailer de la película

Enlaces de descarga

Descargar Alien Covenant (2017) 1080p Full 1080p Latino
Descargar

dpeliculas

Aportes de DPeliculasHDmega la pass es:dpeliculashdmega.org Aportes de CinemaniaHD la pass es:cinemaniahdd.com

PelícuDelas relacionadas

  • Dragon Ball Super (2015) Full 1080p Latino

    2015
    Dragon Ball Super (2015) Full 1080p Latino

    5.0 0h 24m 2015

    Si eres un seguidor de la serie Dragon ball super latino, entonces ahora puedes disfrutar de esta maravillosa...

    Director: Akira Toriyama

    Género: Anime

    Actores: Naoki Tatsuta

  • Collide (2016) 1080p Latino

    2016
    Collide (2016) 1080p Latino

    0.0 1h 39m 2016

    Descargar Persecucion al limite hd latino. Tambien conocida como Collide 1080p Cuando uno de los atracos...

    Director: Eran Creevy

    Género: Acción

    Actores: Nicholas Hoult

  • Gold la gran estafa (2016) 1080p Latino

    2016
    Gold la gran estafa (2016) 1080p Latino

    0.0 2h 1m 2016

    Descarga Gold hd latino, también conocida La gran estafa 1080p latino Kenny Wells es un fracasado hombre...

    Director: Stephen Gaghan

    Género: Aventura

    Actores: Yothin Mapobphun

  • La autopsia de Jane Doe (2016) 1080p Latino

    2016
    La autopsia de Jane Doe (2016) 1080p Latino

    4.0 1h 39m 2016

    Tommy y Austin Tilden regentan una morgue y un crematorio en Virginia. Un día, el sheriff local les...

    Director: Sheila McNaught

    Género: Misterio

    Actores: Parker Sawyers

Comentarios 26