A fondo (2016) 1080p Latino

976 vistas
1 estrella2 estrellas3 estrellas4 estrellas5 estrellas (Ninguna valoración todavía)
Cargando…

Información de A fondo (2016) 1080p Latino

Datos de la película

  • Calidad: 1080p
  • Audio: Español Latino AC3 5.1 BLURAY
  • Subtitulos: No
  • Resolución: 1920x800p
  • Formato: MKV
  • Codec: H.264
  • Encoder: Dpelis
  • Mediainfo: Ver Ver
  • Full Speed (2016) 1080p Latino.mkv
    Format                      : Matroska
    Format version              : Version 4 / Version 2
    File size                   : 2.41 GiB
    Duration                    : 1 h 31 min
    Overall bit rate            : 3 779 kb/s
    Movie name                  : DPeliculasHDMega.ORG
    Encoded date                : UTC 2017-07-09 21:01:57 / UTC 2017-07-09T15:11:18Z
    Writing application         : mkvmerge v10.0.0 ('To Drown In You') 64bit
    Writing library             : libebml v1.3.4 + libmatroska v1.4.5 / Lavf57.7.2

    Video
    ID                          : 1
    Format                      : AVC
    Format/Info                 : Advanced Video Codec
    Format profile              : [email protected]
    Format settings, CABAC      : Yes
    Format settings, ReFrames   : 4 frames
    Codec ID                    : V_MPEG4/ISO/AVC
    Duration                    : 1 h 31 min
    Bit rate                    : 3 320 kb/s
    Nominal bit rate            : 3 500 kb/s
    Width                       : 1 920 pixels
    Height                      : 800 pixels
    Display aspect ratio        : 2.40:1
    Frame rate mode             : Constant
    Frame rate                  : 23.976 (24000/1001) FPS
    Color space                 : YUV
    Chroma subsampling          : 4:2:0
    Bit depth                   : 8 bits
    Scan type                   : Progressive
    Bits/(Pixel*Frame)          : 0.090
    Stream size                 : 2.12 GiB (88%)
    Writing library             : x264 core 148 r2708 86b7198
    Encoding settings           : cabac=1 / ref=3 / deblock=1:0:0 / analyse=0x3:0x113 / me=hex / subme=7 / psy=1 / psy_rd=1.00:0.00 / mixed_ref=1 / me_range=16 / chroma_me=1 / trellis=1 / 8x8dct=1 / cqm=0 / deadzone=21,11 / fast_pskip=1 / chroma_qp_offset=-2 / threads=12 / lookahead_threads=2 / sliced_threads=0 / nr=0 / decimate=1 / interlaced=0 / bluray_compat=0 / constrained_intra=0 / bframes=3 / b_pyramid=2 / b_adapt=1 / b_bias=0 / direct=1 / weightb=1 / open_gop=0 / weightp=2 / keyint=240 / keyint_min=24 / scenecut=40 / intra_refresh=0 / rc_lookahead=40 / rc=abr / mbtree=1 / bitrate=3500 / ratetol=1.0 / qcomp=0.60 / qpmin=0 / qpmax=69 / qpstep=4 / vbv_maxrate=62500 / vbv_bufsize=78125 / nal_hrd=none / filler=0 / ip_ratio=1.40 / aq=1:1.00
    Default                     : Yes
    Forced                      : No
    Color range                 : Limited
    Color primaries             : BT.709
    Transfer characteristics    : BT.709
    Matrix coefficients         : BT.709
    Statistics Tags Issue       : mkvmerge v10.0.0 ('To Drown In You') 64bit 2017-07-09 21:01:57 / mkvmerge v10.0.0 ('To Drown In You') 64bit 2017-07-09 21:01:57 / UTC 2017-07-09T15:11:18Z
    FromStats_BitRate           : 3393484
    FromStats_Duration          : 01:31:14.761000000
    FromStats_FrameCount        : 131263
    FromStats_StreamSize        : 2322314292

    Audio
    ID                          : 2
    Format                      : AC-3
    Format/Info                 : Audio Coding 3
    Format settings, Endianness : Big
    Codec ID                    : A_AC3
    Duration                    : 1 h 31 min
    Bit rate mode               : Constant
    Bit rate                    : 384 kb/s
    Channel(s)                  : 6 channels
    Channel positions           : Front: L C R, Side: L R, LFE
    Sampling rate               : 48.0 kHz
    Frame rate                  : 31.250 FPS (1536 spf)
    Bit depth                   : 16 bits
    Compression mode            : Lossy
    Delay relative to video     : -5 ms
    Stream size                 : 251 MiB (10%)
    Title                       : Surround
    Language                    : Spanish
    Service kind                : Complete Main
    Default                     : Yes
    Forced                      : No
    Statistics Tags Issue       : mkvmerge v10.0.0 ('To Drown In You') 64bit 2017-07-09 21:01:57 / mkvmerge v10.0.0 ('To Drown In You') 64bit 2017-07-09 21:01:57 / UTC 2017-07-09T15:11:18Z
    FromStats_BitRate           : 384000
    FromStats_Duration          : 01:31:14.784000000
    FromStats_FrameCount        : 171087
    FromStats_StreamSize        : 262789632

    Menu
    00:00:00.000                : :Chapter 1
    00:10:33.341                : :Chapter 2
    00:18:37.825                : :Chapter 3
    00:26:01.560                : :Chapter 4
    00:33:35.222                : :Chapter 5
    00:39:50.680                : :Chapter 6
    00:49:01.439                : :Chapter 7
    00:56:54.119                : :Chapter 8
    01:04:18.396                : :Chapter 9
    01:11:32.205                : :Chapter 10
    01:19:00.069                : :Chapter 11
    01:25:49.394                : :Chapter 12

  • Peso: 2.41 GB

Sinopsis

Una mañana, una familia se sube a bordo de su nuevo monovolumen para comenzar las vacaciones de verano. Tom, el padre, ajusta el control electrónico de velocidad para que el vehículo circule a 130 km/h durante todo el viaje. Tras una discusión, Julia exige a Tom que de la vuelta, pero el coche no responde; se ha quedado atascado en los 130 km/h y ninguna maniobra posible para frenarlo surtirá efecto.

Ficha técnica

  • Titulo original: À fond
  • Fecha de lanzamiento: 11-11-2016 (France)
  • Director: Nicolas Benamou
  • Género: Comedia, Familia
  • Puntuación: 0.0 0 votos
  • Duración:
    1h 31m

Imágenes, Capturas de la película

Video trailer de la película

Enlaces de descarga

Descargar A fondo (2016) 1080p Latino
Descargar

dpeliculas

Aportes de DPeliculasHDmega la pass es:dpeliculashdmega.org Aportes de CinemaniaHD la pass es:cinemaniahdd.com
Guardado en : Comedia , Familia

PelícuDelas relacionadas

  • Desnudo (2017) Webdl 1080p Latino

    2017
    Desnudo (2017) Webdl 1080p Latino

    0.0 1h 36m 2017

    Descargar Naked hd latino. Es una pelicula de Netflix, tambien conocida en latinoamerica como Desnudo...

    Director: Michael Tiddes

    Género: Comedia

    Actores: Regina Hall

  • Empeliculados (2017) Webdl 1080p Latino

    2017
    Empeliculados (2017) Webdl 1080p Latino

    0.0 1h 35m 2017

    Descargar Empeliculados hd latino, es una pelicula colombiana. Jorge, un director de cine soñador con...

    Director: Diego Fernando Bustamante

    Género: Comedia

    Actores: Paula Castaño

  • Kung Fu Yoga (2017) Full 1080p Castellano

    2017
    Kung Fu Yoga (2017) Full 1080p Castellano

    0.0 2h 10m 2017

    Descargar Kung Fu Yoga HD una película China pero con doblaje Castellano, no sabemos si habra latino...

    Director: Stanley Tong

    Género: Acción

    Actores: Zhang Guoli

Comentarios 16
  • Charly - 11 Agosto, 2017

    No me funcionan las contraseñas, cual es?

    • dpelis

      Administrador
      - 11 Agosto, 2017

      dpeliculashdmega.org
      todo minuscula

  • slash - 08 Agosto, 2017

    Gracias Cine, por favor déjale los audios originales a las películas francesas, ya has posteado varias pero solo le dejas el latino o castellano, por cierto esta buena esta película, saludos.

    • dpelis

      Administrador
      - 08 Agosto, 2017

      tomado en cuenta

  • Jhefferson - 13 Julio, 2017

    Hola Quisiera hacer una pregunta: Quisiera saber si de esta pelicula y la de nunca digas su nombre habra version plateada para saber si espero que suban plateada o descargo las versiones en negro Muchas gracias por su atencion

    • dpelis

      Administrador
      - 13 Julio, 2017

      solo nunca digas su nombre habra plateada

      • Jhefferson - 13 Julio, 2017

        Muchas gracias por responder solo tenia esa duda esperare la de nunca digas su nombre en plateada y me bajare esta Gracias por la pelicula vere que tal esta parece interesante

  • Juan Manuel Cardona - 11 Julio, 2017

    Este Jgava, Es Un Completo @@@@@@@@, Ni Siquiera Se Ha Dado Cuenta Que Mega Tiene Limites… Es Bobo Que Vaya Y Le Limpie El @@@ La @@@, Mejor Servidor de Descarga Lo Tiene Google En Este Momento,

  • jgava - 09 Julio, 2017

    no tienen link del servidor mega..fraude

    • dpelis

      Administrador
      - 09 Julio, 2017

      no tiene. no sirve mega. para q subir. perder tiempo. use google drive, baja full.sin retencion de espera, fraude. nose a q se refiere

      • jgava - 10 Julio, 2017

        mega es el mejor servidor para descargas..tienes que saberlo…ni modo buscare en otro sitio

        • dpelis

          Administrador
          - 10 Julio, 2017

          era, ahora ya no, si baja de mega tiene que comprar premium. usted libre descargar donde mas se sienta comodo

          • jgava - 10 Julio, 2017

            no se enoje es mi humilde opinion..gracias por sus aportes.

            • dpelis

              Administrador
              - 10 Julio, 2017

              no me enojo. solo que trato de que descargen mas facil usando google drive, y luego no quieren, es que no se entiende, si publicara en uploadede, rapidgator. quizas sera mas facil

              • jgava - 10 Julio, 2017

                fijate que me puse a descargar de googledriver y me estaba funcionando bien muy rapido pero ya para finalizar la descarga tira error

                • dpelis

                  Administrador
                  - 10 Julio, 2017

                  raro, use mypony en mi caso no me da error.