A Family Man (2016) 1080p Latino

1.568 vistas
1 estrella2 estrellas3 estrellas4 estrellas5 estrellas (1 votos, promedio: 5,00 de 5)
Cargando…

Información de A Family Man (2016) 1080p Latino

Datos de la película

  • Calidad: 1080p
  • Audio: Español Latino AC3 5.1 BLURAY - Ingles AC3 5.1 BLURAY
  • Subtitulos: Español Latino SRT
  • Resolución: 1916x798p
  • Formato: MKV
  • Codec: H.264
  • Encoder: Dpelis
  • Mediainfo: Ver Ver
  • A Family Man (2016) 1080p Latino.mkv
    Format                      : Matroska
    Format version              : Version 4 / Version 2
    File size                   : 3.12 GiB
    Duration                    : 1 h 45 min
    Overall bit rate            : 4 228 kb/s
    Movie name                  : DPeliculasHDMega.ORG
    Encoded date                : UTC 2017-08-30 15:51:14 / UTC 2017-08-30T14:36:16Z
    Writing application         : mkvmerge v10.0.0 ('To Drown In You') 64bit
    Writing library             : libebml v1.3.4 + libmatroska v1.4.5 / Lavf57.7.2

    Video
    ID                          : 1
    Format                      : AVC
    Format/Info                 : Advanced Video Codec
    Format profile              : [email protected]
    Format settings, CABAC      : Yes
    Format settings, ReFrames   : 4 frames
    Codec ID                    : V_MPEG4/ISO/AVC
    Duration                    : 1 h 45 min
    Bit rate                    : 3 500 kb/s
    Width                       : 1 920 pixels
    Height                      : 802 pixels
    Display aspect ratio        : 2.40:1
    Frame rate mode             : Constant
    Frame rate                  : 25.000 FPS
    Color space                 : YUV
    Chroma subsampling          : 4:2:0
    Bit depth                   : 8 bits
    Scan type                   : Progressive
    Bits/(Pixel*Frame)          : 0.091
    Stream size                 : 2.49 GiB (80%)
    Writing library             : x264 core 148 r2708 86b7198
    Encoding settings           : cabac=1 / ref=3 / deblock=1:0:0 / analyse=0x3:0x113 / me=hex / subme=7 / psy=1 / psy_rd=1.00:0.00 / mixed_ref=1 / me_range=16 / chroma_me=1 / trellis=1 / 8x8dct=1 / cqm=0 / deadzone=21,11 / fast_pskip=1 / chroma_qp_offset=-2 / threads=12 / lookahead_threads=2 / sliced_threads=0 / nr=0 / decimate=1 / interlaced=0 / bluray_compat=0 / constrained_intra=0 / bframes=3 / b_pyramid=2 / b_adapt=1 / b_bias=0 / direct=1 / weightb=1 / open_gop=0 / weightp=2 / keyint=250 / keyint_min=25 / scenecut=40 / intra_refresh=0 / rc_lookahead=40 / rc=abr / mbtree=1 / bitrate=3500 / ratetol=1.0 / qcomp=0.60 / qpmin=0 / qpmax=69 / qpstep=4 / vbv_maxrate=62500 / vbv_bufsize=78125 / nal_hrd=none / filler=0 / ip_ratio=1.40 / aq=1:1.00
    Default                     : Yes
    Forced                      : No
    Color range                 : Limited
    Color primaries             : BT.709
    Transfer characteristics    : BT.709
    Matrix coefficients         : BT.709
    Statistics Tags Issue       : mkvmerge v10.0.0 ('To Drown In You') 64bit 2017-08-30 15:51:14 / mkvmerge v10.0.0 ('To Drown In You') 64bit 2017-08-30 15:51:14 / UTC 2017-08-30T14:36:16Z
    FromStats_BitRate           : 3458254
    FromStats_Duration          : 01:45:43.000000000
    FromStats_FrameCount        : 158575
    FromStats_StreamSize        : 2741963430

    Audio #1
    ID                          : 2
    Format                      : AC-3
    Format/Info                 : Audio Coding 3
    Format settings, Endianness : Big
    Codec ID                    : A_AC3
    Duration                    : 1 h 45 min
    Bit rate mode               : Constant
    Bit rate                    : 384 kb/s
    Channel(s)                  : 6 channels
    Channel positions           : Front: L C R, Side: L R, LFE
    Sampling rate               : 48.0 kHz
    Frame rate                  : 31.250 FPS (1536 spf)
    Bit depth                   : 16 bits
    Compression mode            : Lossy
    Delay relative to video     : -5 ms
    Stream size                 : 290 MiB (9%)
    Title                       : Surround
    Language                    : Spanish
    Service kind                : Complete Main
    Default                     : Yes
    Forced                      : No
    Statistics Tags Issue       : mkvmerge v10.0.0 ('To Drown In You') 64bit 2017-08-30 15:51:14 / mkvmerge v10.0.0 ('To Drown In You') 64bit 2017-08-30 15:51:14 / UTC 2017-08-30T14:36:16Z
    FromStats_BitRate           : 384000
    FromStats_Duration          : 01:45:42.944000000
    FromStats_FrameCount        : 198217
    FromStats_StreamSize        : 304461312

    Audio #2
    ID                          : 3
    Format                      : AC-3
    Format/Info                 : Audio Coding 3
    Format settings, Endianness : Big
    Codec ID                    : A_AC3
    Duration                    : 1 h 45 min
    Bit rate mode               : Constant
    Bit rate                    : 384 kb/s
    Channel(s)                  : 6 channels
    Channel positions           : Front: L C R, Side: L R, LFE
    Sampling rate               : 48.0 kHz
    Frame rate                  : 31.250 FPS (1536 spf)
    Bit depth                   : 16 bits
    Compression mode            : Lossy
    Delay relative to video     : -5 ms
    Stream size                 : 290 MiB (9%)
    Title                       : Surround
    Language                    : English
    Service kind                : Complete Main
    Default                     : No
    Forced                      : No
    Statistics Tags Issue       : mkvmerge v10.0.0 ('To Drown In You') 64bit 2017-08-30 15:51:14 / mkvmerge v10.0.0 ('To Drown In You') 64bit 2017-08-30 15:51:14 / UTC 2017-08-30T14:36:16Z
    FromStats_BitRate           : 384000
    FromStats_Duration          : 01:45:42.912000000
    FromStats_FrameCount        : 198216
    FromStats_StreamSize        : 304459776

    Text
    ID                          : 4
    Format                      : UTF-8
    Codec ID                    : S_TEXT/UTF8
    Codec ID/Info               : UTF-8 Plain Text
    Language                    : Spanish
    Default                     : No
    Forced                      : No
    Statistics Tags Issue       : mkvmerge v10.0.0 ('To Drown In You') 64bit 2017-08-30 15:51:14 / mkvmerge v10.0.0 ('To Drown In You') 64bit 2017-08-30 15:51:14 / UTC 2017-08-30T14:36:16Z
    FromStats_BitRate           : 78
    FromStats_Duration          : 01:41:44.806000000
    FromStats_FrameCount        : 1600
    FromStats_StreamSize        : 59567

    Menu
    00:00:00.000                : :Chapter 1
    00:07:50.840                : :Chapter 2
    00:15:05.000                : :Chapter 3
    00:23:47.480                : :Chapter 4
    00:31:20.000                : :Chapter 5
    00:38:47.640                : :Chapter 6
    00:45:59.920                : :Chapter 7
    00:55:00.840                : :Chapter 8
    01:02:44.920                : :Chapter 9
    01:09:44.760                : :Chapter 10
    01:17:32.760                : :Chapter 11
    01:25:14.920                : :Chapter 12
    01:34:02.400                : :Chapter 13
    01:41:19.320                : :Chapter 14

  • Peso: 3.12 GB

Sinopsis

Dane Jensen (Gerard Butler) es un exitoso reclutador corporativo en Chicago que trabaja de tiempo completo para la firma Blackridge y sin tiempo ni espacio para su familia. Después de que su jefe Ed Blackridge (William Dafoe) decide retirarse, Dane finalmente piensa que ha alcanzado la meta por la que ha luchado tanto tiempo y estar a cargo de la compañía tras vencer a su ambiciosa colega Lynn Vogel (Alison Brie). Sin embargo un día recibe una llamada inesperada de casa que cambiará su vida para siempre, su hijo de 10 años, Ryan (Maxwell Jenkins) ha sido diagnosticado con leucemia y sus prioridades profesionales y las personales comienzan a interferir unas con otras llevándolo a reevaluar su vida y a darse cuenta de lo que realmente es más importante.

Ficha técnica

  • Titulo original: A Family Man
  • Fecha de lanzamiento: 18-05-2017 (United States of America)
  • Director: Mark Williams
  • Género: Drama
  • Puntuación: 5.0 1 votos
  • Duración:
    1h 45m

Imágenes, Capturas de la película

Video trailer de la película

Enlaces de descarga

Descargar A Family Man (2016) 1080p Latino
Descargar

dpeliculas

Aportes de DPeliculasHDmega la pass es:dpeliculashdmega.org Aportes de CinemaniaHD la pass es:cinemaniahdd.com
Guardado en : Drama

PelícuDelas relacionadas

Comentarios 0