A Dark Song (2016) 1080p Latino

964 vistas
1 estrella2 estrellas3 estrellas4 estrellas5 estrellas (1 votos, promedio: 3,00 de 5)
Cargando…

Información de A Dark Song (2016) 1080p Latino

Datos de la película

  • Calidad: 1080p
  • Audio: Español Latino AC3 2.0 DVD - Ingles AC3 5.1 BLURAY
  • Subtitulos: Español Latino SRT - Ingles SRT
  • Resolución: 1920x808p
  • Formato: MKV
  • Codec: H.264
  • Encoder: Dpelis
  • Mediainfo: Ver Ver
  • A dark song (2016) 1080p Latino.mkv
    Format                      : Matroska
    Format version              : Version 4 / Version 2
    File size                   : 2.80 GiB
    Duration                    : 1 h 39 min
    Overall bit rate            : 4 007 kb/s
    Movie name                  : DPeliculasHDMega.ORG
    Encoded date                : UTC 2017-08-26 22:37:22 / UTC 2017-08-26T15:46:47Z
    Writing application         : mkvmerge v10.0.0 ('To Drown In You') 64bit
    Writing library             : libebml v1.3.4 + libmatroska v1.4.5 / Lavf57.7.2

    Video
    ID                          : 1
    Format                      : AVC
    Format/Info                 : Advanced Video Codec
    Format profile              : [email protected]
    Format settings, CABAC      : Yes
    Format settings, ReFrames   : 4 frames
    Codec ID                    : V_MPEG4/ISO/AVC
    Duration                    : 1 h 39 min
    Bit rate                    : 3 500 kb/s
    Width                       : 1 920 pixels
    Height                      : 808 pixels
    Display aspect ratio        : 2.40:1
    Frame rate mode             : Constant
    Frame rate                  : 23.976 (24000/1001) FPS
    Color space                 : YUV
    Chroma subsampling          : 4:2:0
    Bit depth                   : 8 bits
    Scan type                   : Progressive
    Bits/(Pixel*Frame)          : 0.094
    Stream size                 : 2.34 GiB (84%)
    Writing library             : x264 core 148 r2708 86b7198
    Encoding settings           : cabac=1 / ref=3 / deblock=1:0:0 / analyse=0x3:0x113 / me=hex / subme=7 / psy=1 / psy_rd=1.00:0.00 / mixed_ref=1 / me_range=16 / chroma_me=1 / trellis=1 / 8x8dct=1 / cqm=0 / deadzone=21,11 / fast_pskip=1 / chroma_qp_offset=-2 / threads=12 / lookahead_threads=2 / sliced_threads=0 / nr=0 / decimate=1 / interlaced=0 / bluray_compat=0 / constrained_intra=0 / bframes=3 / b_pyramid=2 / b_adapt=1 / b_bias=0 / direct=1 / weightb=1 / open_gop=0 / weightp=2 / keyint=240 / keyint_min=24 / scenecut=40 / intra_refresh=0 / rc_lookahead=40 / rc=abr / mbtree=1 / bitrate=3500 / ratetol=1.0 / qcomp=0.60 / qpmin=0 / qpmax=69 / qpstep=4 / vbv_maxrate=62500 / vbv_bufsize=78125 / nal_hrd=none / filler=0 / ip_ratio=1.40 / aq=1:1.00
    Default                     : Yes
    Forced                      : No
    Color range                 : Limited
    Color primaries             : BT.709
    Transfer characteristics    : BT.709
    Matrix coefficients         : BT.709
    Statistics Tags Issue       : mkvmerge v10.0.0 ('To Drown In You') 64bit 2017-08-26 22:37:22 / mkvmerge v10.0.0 ('To Drown In You') 64bit 2017-08-26 22:37:22 / UTC 2017-08-26T15:46:47Z
    FromStats_BitRate           : 3430372
    FromStats_Duration          : 01:39:54.989000000
    FromStats_FrameCount        : 143736
    FromStats_StreamSize        : 2570630512

    Audio #1
    ID                          : 2
    Format                      : AC-3
    Format/Info                 : Audio Coding 3
    Format settings, Endianness : Big
    Codec ID                    : A_AC3
    Duration                    : 1 h 39 min
    Bit rate mode               : Constant
    Bit rate                    : 192 kb/s
    Channel(s)                  : 2 channels
    Channel positions           : Front: L R
    Sampling rate               : 48.0 kHz
    Frame rate                  : 31.250 FPS (1536 spf)
    Bit depth                   : 16 bits
    Compression mode            : Lossy
    Delay relative to video     : -5 ms
    Stream size                 : 137 MiB (5%)
    Language                    : Spanish
    Service kind                : Complete Main
    Default                     : No
    Forced                      : No
    Statistics Tags Issue       : mkvmerge v10.0.0 ('To Drown In You') 64bit 2017-08-26 22:37:22 / mkvmerge v10.0.0 ('To Drown In You') 64bit 2017-08-26 22:37:22 / UTC 2017-08-26T15:46:47Z
    FromStats_BitRate           : 192000
    FromStats_Duration          : 01:39:53.920000000
    FromStats_FrameCount        : 187310
    FromStats_StreamSize        : 143854080

    Audio #2
    ID                          : 3
    Format                      : AC-3
    Format/Info                 : Audio Coding 3
    Format settings, Endianness : Big
    Codec ID                    : A_AC3
    Duration                    : 1 h 39 min
    Bit rate mode               : Constant
    Bit rate                    : 384 kb/s
    Channel(s)                  : 6 channels
    Channel positions           : Front: L C R, Side: L R, LFE
    Sampling rate               : 48.0 kHz
    Frame rate                  : 31.250 FPS (1536 spf)
    Bit depth                   : 16 bits
    Compression mode            : Lossy
    Delay relative to video     : -5 ms
    Stream size                 : 275 MiB (10%)
    Title                       : Surround
    Language                    : English
    Service kind                : Complete Main
    Default                     : Yes
    Forced                      : No
    Statistics Tags Issue       : mkvmerge v10.0.0 ('To Drown In You') 64bit 2017-08-26 22:37:22 / mkvmerge v10.0.0 ('To Drown In You') 64bit 2017-08-26 22:37:22 / UTC 2017-08-26T15:46:47Z
    FromStats_BitRate           : 384000
    FromStats_Duration          : 01:39:58.016000000
    FromStats_FrameCount        : 187438
    FromStats_StreamSize        : 287904768

    Text #1
    ID                          : 4
    Format                      : UTF-8
    Codec ID                    : S_TEXT/UTF8
    Codec ID/Info               : UTF-8 Plain Text
    Language                    : Spanish
    Default                     : Yes
    Forced                      : No
    Statistics Tags Issue       : mkvmerge v10.0.0 ('To Drown In You') 64bit 2017-08-26 22:37:22 / mkvmerge v10.0.0 ('To Drown In You') 64bit 2017-08-26 22:37:22 / UTC 2017-08-26T15:46:47Z
    FromStats_BitRate           : 31
    FromStats_Duration          : 01:35:52.244000000
    FromStats_FrameCount        : 781
    FromStats_StreamSize        : 22707

    Text #2
    ID                          : 5
    Format                      : UTF-8
    Codec ID                    : S_TEXT/UTF8
    Codec ID/Info               : UTF-8 Plain Text
    Language                    : English
    Default                     : No
    Forced                      : No
    Statistics Tags Issue       : mkvmerge v10.0.0 ('To Drown In You') 64bit 2017-08-26 22:37:22 / mkvmerge v10.0.0 ('To Drown In You') 64bit 2017-08-26 22:37:22 / UTC 2017-08-26T15:46:47Z
    FromStats_BitRate           : 33
    FromStats_Duration          : 01:38:19.861000000
    FromStats_FrameCount        : 1004
    FromStats_StreamSize        : 24570

    Menu
    00:00:00.000                : :00:00:00.000
    00:07:45.924                : :00:07:45.840
    00:17:37.640                : :00:17:37.556
    00:25:53.844                : :00:25:53.761
    00:33:49.069                : :00:33:49.069
    00:41:46.671                : :00:41:46.587
    00:51:46.729                : :00:51:46.645
    01:02:51.351                : :01:02:51.351
    01:13:04.255                : :01:13:04.213
    01:23:08.525                : :01:23:08.442
    01:27:17.482                : :01:27:17.441
    01:36:15.687                : :01:36:15.645

  • Peso: 2.80 GB

Sinopsis

Una mujer se embarca en un ritual que durará meses con la finalidad de contactar con su hijo recién fallecido. Para ello contratará los servicios de un médium que la guiará y acompañará en este largo y peligroso proceso. Durante meses se verá sometida a duras pruebas y la relación entre ambos llegará a puntos límite.

Ficha técnica

  • Titulo original: A Dark Song
  • Fecha de lanzamiento: 14-10-2016 (Ireland, United Kingdom)
  • Director: Liam Gavin
  • Género: Drama, Terror
  • Puntuación: 3.0 1 votos
  • Duración:
    1h 39m

Imágenes, Capturas de la película

Video trailer de la película

Enlaces de descarga

Descargar A Dark Song (2016) 1080p Latino
Descargar

dpeliculas

Aportes de DPeliculasHDmega la pass es:dpeliculashdmega.org Aportes de CinemaniaHD la pass es:cinemaniahdd.com
Guardado en : Drama , Terror

PelícuDelas relacionadas

Comentarios 2
  • YO - 27 agosto, 2017

    no tiene audio latino u.u esta mal la descripcion u.u

    • dpelis

      Administrador
      - 27 agosto, 2017

      si tiene lo q poner spanish puse german jajaa. pero si tiene latino