Advertise here

6 Days (2017) 1080p Latino

1.543 vistas
1 estrella2 estrellas3 estrellas4 estrellas5 estrellas (Ninguna valoración todavía)
Cargando…

Información de 6 Days (2017) 1080p Latino

Datos de la película

  • Calidad: 1080p
  • Audio: Español Latino AC3 5.1 DVD - Ingles AC3 5.1 BLURAY
  • Subtitulos: Español Latino SRT
  • Resolución: 1920X804
  • Formato: MKV
  • Codec: H.264
  • Encoder: Dpelis
  • Mediainfo: Clic para Mostrar Datos Ver
  • Format                                   : Matroska
    Format version                           : Version 4 / Version 2
    File size                                : 2.82 GiB
    Duration                                 : 1 h 34 min
    Overall bit rate                         : 4 273 kb/s
    Movie name                               : dpeliculashdmega.org
    Encoded date                             : UTC 2017-11-03 15:03:31 / UTC 2017-11-03T10:30:59Z
    Writing application                      : mkvmerge v15.0.0 ('Duel with the Devil') 64-bit
    Writing library                          : libebml v1.3.5 + libmatroska v1.4.5 / Lavf57.7.2

    Video
    ID                                       : 1
    Format                                   : AVC
    Format/Info                              : Advanced Video Codec
    Format profile                           : [email protected]
    Format settings                          : CABAC / 5 Ref Frames
    Format settings, CABAC                   : Yes
    Format settings, RefFrames               : 5 frames
    Codec ID                                 : V_MPEG4/ISO/AVC
    Duration                                 : 1 h 34 min
    Bit rate                                 : 3 500 kb/s
    Width                                    : 1 920 pixels
    Height                                   : 804 pixels
    Display aspect ratio                     : 2.40:1
    Frame rate mode                          : Constant
    Frame rate                               : 23.976 (24000/1001) FPS
    Color space                              : YUV
    Chroma subsampling                       : 4:2:0
    Bit depth                                : 8 bits
    Scan type                                : Progressive
    Bits/(Pixel*Frame)                       : 0.095
    Stream size                              : 2.22 GiB (79%)
    Title                                    : 6 Days (2017) 1080p Latino
    Writing library                          : x264 core 148 r2708 86b7198
    Encoding settings                        : cabac=1 / ref=5 / deblock=1:0:0 / analyse=0x3:0x113 / me=umh / subme=8 / psy=1 / psy_rd=1.00:0.00 / mixed_ref=1 / me_range=16 / chroma_me=1 / trellis=1 / 8x8dct=1 / cqm=0 / deadzone=21,11 / fast_pskip=1 / chroma_qp_offset=-2 / threads=25 / lookahead_threads=4 / sliced_threads=0 / nr=0 / decimate=1 / interlaced=0 / bluray_compat=0 / constrained_intra=0 / bframes=3 / b_pyramid=2 / b_adapt=2 / b_bias=0 / direct=3 / weightb=1 / open_gop=0 / weightp=2 / keyint=240 / keyint_min=24 / scenecut=40 / intra_refresh=0 / rc_lookahead=50 / rc=abr / mbtree=1 / bitrate=3500 / ratetol=1.0 / qcomp=0.60 / qpmin=0 / qpmax=69 / qpstep=4 / vbv_maxrate=62500 / vbv_bufsize=78125 / nal_hrd=none / filler=0 / ip_ratio=1.40 / aq=1:1.00
    Language                                 : English
    Default                                  : Yes
    Forced                                   : No
    Color range                              : Limited
    Color primaries                          : BT.709
    Transfer characteristics                 : BT.709
    Matrix coefficients                      : BT.709
    Statistics Tags Issue                    : mkvmerge v15.0.0 ('Duel with the Devil') 64-bit 2017-11-03 15:03:31 / mkvmerge v15.0.0 ('Duel with the Devil') 64-bit 2017-11-03 15:03:31 / UTC 2017-11-03T10:30:59Z
    FromStats_BitRate                        : 3438653
    FromStats_Duration                       : 01:34:34.085000000
    FromStats_FrameCount                     : 136042
    FromStats_StreamSize                     : 2438901523

    Audio #1
    ID                                       : 2
    Format                                   : AC-3
    Format/Info                              : Audio Coding 3
    Format settings, Endianness              : Big
    Codec ID                                 : A_AC3
    Duration                                 : 1 h 34 min
    Bit rate mode                            : Constant
    Bit rate                                 : 448 kb/s
    Channel(s)                               : 6 channels
    Channel positions                        : Front: L C R, Side: L R, LFE
    Sampling rate                            : 48.0 kHz
    Frame rate                               : 31.250 FPS (1536 SPF)
    Bit depth                                : 16 bits
    Compression mode                         : Lossy
    Delay relative to video                  : -5 ms
    Stream size                              : 303 MiB (10%)
    Title                                    : Latino-AC3
    Language                                 : Spanish
    Service kind                             : Complete Main
    Default                                  : Yes
    Forced                                   : No
    Statistics Tags Issue                    : mkvmerge v15.0.0 ('Duel with the Devil') 64-bit 2017-11-03 15:03:31 / mkvmerge v15.0.0 ('Duel with the Devil') 64-bit 2017-11-03 15:03:31 / UTC 2017-11-03T10:30:59Z
    FromStats_BitRate                        : 448000
    FromStats_Duration                       : 01:34:34.112000000
    FromStats_FrameCount                     : 177316
    FromStats_StreamSize                     : 317750272

    Audio #2
    ID                                       : 3
    Format                                   : AC-3
    Format/Info                              : Audio Coding 3
    Format settings, Endianness              : Big
    Codec ID                                 : A_AC3
    Duration                                 : 1 h 34 min
    Bit rate mode                            : Constant
    Bit rate                                 : 384 kb/s
    Channel(s)                               : 6 channels
    Channel positions                        : Front: L C R, Side: L R, LFE
    Sampling rate                            : 48.0 kHz
    Frame rate                               : 31.250 FPS (1536 SPF)
    Bit depth                                : 16 bits
    Compression mode                         : Lossy
    Delay relative to video                  : -5 ms
    Stream size                              : 260 MiB (9%)
    Title                                    : Ingles-AC3
    Language                                 : English
    Service kind                             : Complete Main
    Default                                  : No
    Forced                                   : No
    Statistics Tags Issue                    : mkvmerge v15.0.0 ('Duel with the Devil') 64-bit 2017-11-03 15:03:31 / mkvmerge v15.0.0 ('Duel with the Devil') 64-bit 2017-11-03 15:03:31 / UTC 2017-11-03T10:30:59Z
    FromStats_BitRate                        : 384000
    FromStats_Duration                       : 01:34:34.080000000
    FromStats_FrameCount                     : 177315
    FromStats_StreamSize                     : 272355840

    Text #1
    ID                                       : 4
    Format                                   : UTF-8
    Codec ID                                 : S_TEXT/UTF8
    Codec ID/Info                            : UTF-8 Plain Text
    Title                                    : Forzados
    Language                                 : Spanish
    Default                                  : Yes
    Forced                                   : No
    Statistics Tags Issue                    : mkvmerge v15.0.0 ('Duel with the Devil') 64-bit 2017-11-03 15:03:31 / mkvmerge v15.0.0 ('Duel with the Devil') 64-bit 2017-11-03 15:03:31 / UTC 2017-11-03T10:30:59Z
    FromStats_BitRate                        : 7
    FromStats_Duration                       : 01:29:38.406000000
    FromStats_FrameCount                     : 117
    FromStats_StreamSize                     : 5081

    Text #2
    ID                                       : 5
    Format                                   : UTF-8
    Codec ID                                 : S_TEXT/UTF8
    Codec ID/Info                            : UTF-8 Plain Text
    Title                                    : Completos
    Language                                 : Spanish
    Default                                  : No
    Forced                                   : No
    Statistics Tags Issue                    : mkvmerge v15.0.0 ('Duel with the Devil') 64-bit 2017-11-03 15:03:31 / mkvmerge v15.0.0 ('Duel with the Devil') 64-bit 2017-11-03 15:03:31 / UTC 2017-11-03T10:30:59Z
    FromStats_BitRate                        : 62
    FromStats_Duration                       : 01:30:40.816000000
    FromStats_FrameCount                     : 1175
    FromStats_StreamSize                     : 42214

    Menu
    00:00:00.000                             : :00:00:00.000
    00:05:53.478                             : :00:05:53.436
    00:11:55.798                             : :00:11:55.757
    00:17:58.661                             : :00:17:58.577
    00:24:04.860                             : :00:24:04.860
    00:30:02.217                             : :00:30:02.175
    00:36:44.327                             : :00:36:44.327
    00:41:56.139                             : :00:41:56.139
    00:48:57.726                             : :00:48:57.726
    00:54:16.545                             : :00:54:16.503
    01:00:52.149                             : :01:00:52.148
    01:06:29.319                             : :01:06:29.319
    01:12:07.448                             : :01:12:07.448
    01:17:54.336                             : :01:17:54.336
    01:24:07.417                             : :01:24:07.376
    01:30:12.073                             : :01:30:12.073

  • Peso: 2.82 GiB

Sinopsis

En abril de 1980, seis hombres armados irrumpieron en la embajada iraní de Londres tomando a 26 personas como rehenes. Durante los seis días siguientes se produjo un tenso enfrentamiento, mientras que un grupo de soldados altamente entrenados del SAS se preparaban para una incursión como el mundo nunca antes había visto.

Ficha técnica

  • Titulo original: 6 Days
  • Fecha de lanzamiento: 03-08-2017 (New Zealand, United Kingdom)
  • Director: Toa Fraser
  • Género: Acción
  • Puntuación: 0.0 0 votos
  • Duración:
    1 h 34 min

Video trailer de la película

Enlaces de descarga

Descargar 6 Days (2017) 1080p Latino
Descargar

dpeliculas

Aportes de DPeliculasHDmega la pass es:dpeliculashdmega.org Aportes de CinemaniaHD la pass es:cinemaniahdd.com
Guardado en : Acción

Películas relacionadas

  • Guardianes de altamar (2006) Full 1080p Latino

    2006
    Guardianes de altamar (2006) Full 1080p Latino

    0.0 2h 16m 2006

    Después de perder a su equipo en un trágico accidente, Ben Randall, un legendario nadador de rescate,...

    Director: Andrew Davis

    Género: Acción

    Actores: Travis Willingham

  • Pilgrimage (2017) WEB-DL 1080p Latino

    2017
    Pilgrimage (2017) WEB-DL 1080p Latino

    0.0 1 h 36 min 2017

    “Roma ha hablado”, con esa frase unos monjes cristianos deben comenzar la peregrinación hacia Roma...

    Director: Sophie Higel

    Género: Acción

    Actores: Tristan McConnell

  • The Bourne Ultimátum (2007) Full 1080p Latino

    2007
    The Bourne Ultimátum (2007) Full 1080p Latino

    5.0 1 h 55 min 2007

    Jason Bourne sigue investigando quién es y qué hay realmente detrás del programa secreto de la CIA...

    Director: Sue Mahoney

    Género: Acción

    Actores: William H. Burns

  • The Bourne Supremacy (2004) Full 1080p Latino

    2004
    The Bourne Supremacy (2004) Full 1080p Latino

    5.0 1h 48m 2004

    El pasado de Jason Bourne vuelve por él. En la segunda entrega de la saga de tres películas basadas...

    Director: Thorne Mutert

    Género: Acción

    Actores: Yevgeni Sitokhin

Comentarios 0