Advertise here

50/50 (2011) Full 1080p Latino

535 vistas
1 estrella2 estrellas3 estrellas4 estrellas5 estrellas (Ninguna valoración todavía)
Cargando…

Información de 50/50 (2011) Full 1080p Latino

Datos de la película

  • Calidad: Full 1080p
  • Audio: Español Latino AC3 5.1 BLURAY - Ingles DTS 5.1 BLURAY
  • Subtitulos: Español Latino SRT - Ingles SRT
  • Resolución: 1920X1080
  • Formato: MKV
  • Codec: H.264
  • Encoder: Dpelis
  • Mediainfo: Clic para Mostrar Datos Ver
  • Format                                   : Matroska
    Format version                           : Version 4 / Version 2
    File size                                : 6.75 GiB
    Duration                                 : 1 h 40 min
    Overall bit rate                         : 9 664 kb/s
    Movie name                               : dpeliculashdmega.org
    Encoded date                             : UTC 2017-11-10 02:54:05 / UTC 2017-11-09T10:19:55Z
    Writing application                      : mkvmerge v15.0.0 ('Duel with the Devil') 64-bit
    Writing library                          : libebml v1.3.5 + libmatroska v1.4.5 / Lavf57.7.2

    Video
    ID                                       : 1
    Format                                   : AVC
    Format/Info                              : Advanced Video Codec
    Format profile                           : [email protected]
    Format settings                          : CABAC / 4 Ref Frames
    Format settings, CABAC                   : Yes
    Format settings, RefFrames               : 4 frames
    Codec ID                                 : V_MPEG4/ISO/AVC
    Duration                                 : 1 h 40 min
    Bit rate                                 : 7 323 kb/s
    Width                                    : 1 920 pixels
    Height                                   : 1 080 pixels
    Display aspect ratio                     : 16:9
    Frame rate mode                          : Constant
    Frame rate                               : 23.976 (24000/1001) FPS
    Color space                              : YUV
    Chroma subsampling                       : 4:2:0
    Bit depth                                : 8 bits
    Scan type                                : Progressive
    Bits/(Pixel*Frame)                       : 0.147
    Stream size                              : 5.12 GiB (76%)
    Title                                    : 5050 (2011) Full 1080p Latino
    Writing library                          : x264 core 148 r2708 86b7198
    Encoding settings                        : cabac=1 / ref=4 / deblock=1:0:0 / analyse=0x3:0x133 / me=esa / subme=10 / psy=1 / psy_rd=1.00:0.00 / mixed_ref=1 / me_range=24 / chroma_me=1 / trellis=2 / 8x8dct=1 / cqm=0 / deadzone=21,11 / fast_pskip=1 / chroma_qp_offset=-2 / threads=34 / lookahead_threads=5 / sliced_threads=0 / nr=0 / decimate=1 / interlaced=0 / bluray_compat=0 / constrained_intra=0 / bframes=8 / b_pyramid=2 / b_adapt=2 / b_bias=0 / direct=3 / weightb=1 / open_gop=0 / weightp=2 / keyint=240 / keyint_min=24 / scenecut=40 / intra_refresh=0 / rc_lookahead=60 / rc=crf / mbtree=1 / crf=20.0 / qcomp=0.60 / qpmin=0 / qpmax=69 / qpstep=4 / vbv_maxrate=62500 / vbv_bufsize=78125 / crf_max=0.0 / nal_hrd=none / filler=0 / ip_ratio=1.40 / aq=1:1.00
    Language                                 : English
    Default                                  : Yes
    Forced                                   : No
    Color range                              : Limited
    Color primaries                          : BT.709
    Transfer characteristics                 : BT.709
    Matrix coefficients                      : BT.709
    Statistics Tags Issue                    : mkvmerge v15.0.0 ('Duel with the Devil') 64-bit 2017-11-10 02:54:05 / mkvmerge v15.0.0 ('Duel with the Devil') 64-bit 2017-11-10 02:54:05 / UTC 2017-11-09T10:19:55Z
    FromStats_BitRate                        : 7512504
    FromStats_Duration                       : 01:40:02.997000000
    FromStats_FrameCount                     : 143928
    FromStats_StreamSize                     : 5637192543

    Audio #1
    ID                                       : 2
    Format                                   : AC-3
    Format/Info                              : Audio Coding 3
    Format settings, Endianness              : Big
    Codec ID                                 : A_AC3
    Duration                                 : 1 h 40 min
    Bit rate mode                            : Constant
    Bit rate                                 : 640 kb/s
    Channel(s)                               : 6 channels
    Channel positions                        : Front: L C R, Side: L R, LFE
    Sampling rate                            : 48.0 kHz
    Frame rate                               : 31.250 FPS (1536 SPF)
    Bit depth                                : 16 bits
    Compression mode                         : Lossy
    Stream size                              : 458 MiB (7%)
    Title                                    : Latino-AC3
    Language                                 : Spanish
    Service kind                             : Complete Main
    Default                                  : Yes
    Forced                                   : No
    Statistics Tags Issue                    : mkvmerge v15.0.0 ('Duel with the Devil') 64-bit 2017-11-10 02:54:05 / mkvmerge v15.0.0 ('Duel with the Devil') 64-bit 2017-11-10 02:54:05 / UTC 2017-11-09T10:19:55Z
    FromStats_BitRate                        : 640000
    FromStats_Duration                       : 01:40:02.976000000
    FromStats_FrameCount                     : 187593
    FromStats_StreamSize                     : 480238080

    Audio #2
    ID                                       : 3
    Format                                   : DTS
    Format/Info                              : Digital Theater Systems
    Mode                                     : 16
    Format settings, Endianness              : Big
    Codec ID                                 : A_DTS
    Duration                                 : 1 h 40 min
    Bit rate mode                            : Constant
    Bit rate                                 : 1 509 kb/s
    Channel(s)                               : 6 channels
    Channel positions                        : Front: L C R, Side: L R, LFE
    Sampling rate                            : 48.0 kHz
    Frame rate                               : 93.750 FPS (512 SPF)
    Bit depth                                : 24 bits
    Compression mode                         : Lossy
    Stream size                              : 1.05 GiB (16%)
    Title                                    : Ingles-DTS
    Language                                 : English
    Default                                  : No
    Forced                                   : No
    Statistics Tags Issue                    : mkvmerge v15.0.0 ('Duel with the Devil') 64-bit 2017-11-10 02:54:05 / mkvmerge v15.0.0 ('Duel with the Devil') 64-bit 2017-11-10 02:54:05 / UTC 2017-11-09T10:19:55Z
    FromStats_BitRate                        : 1508999
    FromStats_Duration                       : 01:40:02.998000000
    FromStats_FrameCount                     : 562781
    FromStats_StreamSize                     : 1132315372

    Text #1
    ID                                       : 4
    Format                                   : UTF-8
    Codec ID                                 : S_TEXT/UTF8
    Codec ID/Info                            : UTF-8 Plain Text
    Language                                 : Spanish
    Default                                  : No
    Forced                                   : No
    Statistics Tags Issue                    : mkvmerge v15.0.0 ('Duel with the Devil') 64-bit 2017-11-10 02:54:05 / mkvmerge v15.0.0 ('Duel with the Devil') 64-bit 2017-11-10 02:54:05 / UTC 2017-11-09T10:19:55Z
    FromStats_BitRate                        : 60
    FromStats_Duration                       : 01:33:02.034000000
    FromStats_FrameCount                     : 1335
    FromStats_StreamSize                     : 42086

    Text #2
    ID                                       : 5
    Format                                   : UTF-8
    Codec ID                                 : S_TEXT/UTF8
    Codec ID/Info                            : UTF-8 Plain Text
    Language                                 : English
    Default                                  : No
    Forced                                   : No
    Statistics Tags Issue                    : mkvmerge v15.0.0 ('Duel with the Devil') 64-bit 2017-11-10 02:54:05 / mkvmerge v15.0.0 ('Duel with the Devil') 64-bit 2017-11-10 02:54:05 / UTC 2017-11-09T10:19:55Z
    FromStats_BitRate                        : 78
    FromStats_Duration                       : 01:36:59.520000000
    FromStats_FrameCount                     : 1538
    FromStats_StreamSize                     : 57193

    Menu
    00:00:00.000                             : : Opening Credits / I  Have a Drawer?
    00:05:34.626                             : : Is There Something Wrong With Me?
    00:10:11.903                             : : Survival Rate 50%
    00:17:09.070                             : : I'm Your Third Patient
    00:23:20.524                             : : Want a Macaroon?
    00:31:16.041                             : : You're Gonna Look Weird
    00:38:12.665                             : : You're Cheating On Me?
    00:43:50.628                             : : It's Not Contagious
    00:50:55.761                             : : Let's Not Do the Therapy Thing in the Car
    00:56:39.021                             : : Medicinal Marijuana
    01:03:00.443                             : : Makes You Kind of a Dick
    01:05:22.710                             : : Where's Mitch?
    01:10:44.240                             : : Cancer Support Group
    01:14:38.849                             : : Having a Nervous Breakdown
    01:20:35.372                             : : Surgery Day
    01:24:36.363                             : : How Do You Know I Will Wake Up?
    01:28:27.302                             : : I Want to Make You Pancakes
    01:32:49.022                             : : Now What?

  • Peso: 6.75 GiB

Sinopsis

Adam es un joven de 27 años al que se le diagnostica un cáncer. Con la ayuda de su mejor amigo, su madre y una joven terapeuta de un centro de rehabilitación, Adam descubre cuáles son las cosas más importantes de la vida.

Ficha técnica

Video trailer de la película

Enlaces de descarga

Descargar 50/50 (2011) Full 1080p Latino
Descargar

dpeliculas

Aportes de DPeliculasHDmega la pass es:dpeliculashdmega.org Aportes de CinemaniaHD la pass es:cinemaniahdd.com
Guardado en : Comedia , Drama , FULL 1080p Pesadas

Películas relacionadas

  • Crash Pad (2017) WEB-DL 1080p Latino

    2017
    Crash Pad (2017) WEB-DL 1080p Latino

    0.0 1 h 33 min 2017

    Un romántico sin esperanza que cree que ha encontrado el amor verdadero con una mujer mayor, solo para...

    Director: Kevin Tent

    Género: Comedia

    Actores: Vladimir Ruzich

  • Toy Story 3 (2010) Full 1080p Latino

    2010
    Toy Story 3 (2010) Full 1080p Latino

    0.0 1 h 43 min 2010

    Sabiendo que su dueño Andy, que ya no es un niño, se prepara para ir a la universidad, el vaquero Woody,...

    Director: Mark Sanford

    Género: Animación

    Actores: Whoopi Goldberg

  • Toy Story (1995) Full 1080p Latino

    1995
    Toy Story (1995) Full 1080p Latino

    0.0 1 h 21 min 1995

    Los juguetes de Andy, un niño de 6 años, temen que haya llegado su hora y que un nuevo regalo de cumpleaños...

    Director: Roman Figun

    Género: Animación

    Actores: Wallace Shawn

Comentarios 0