Advertise here

300 (2006) Full 1080p Latino

819 vistas
1 estrella2 estrellas3 estrellas4 estrellas5 estrellas (2 votos, promedio: 5,00 de 5)
Cargando…

Información de 300 (2006) Full 1080p Latino

Datos de la película

  • Calidad: Full 1080p
  • Audio: Español Latino AC3 5.1 BLURAY - Ingles DTS 5.1 BLURAY
  • Subtitulos: Español Latino PGS - Ingles PGS
  • Resolución: 1920X1080
  • Formato: MKV
  • Codec: H.264
  • Encoder: Dpelis
  • Mediainfo: Clic para Mostrar Datos Ver
  • Format                                   : Matroska
    Format version                           : Version 4 / Version 2
    File size                                : 11.5 GiB
    Duration                                 : 1 h 56 min
    Overall bit rate                         : 14.1 Mb/s
    Movie name                               : dpeloculashdmega.org
    Encoded date                             : UTC 2017-11-12 04:40:26 / UTC 2017-11-10T14:31:57Z
    Writing application                      : mkvmerge v15.0.0 ('Duel with the Devil') 64-bit
    Writing library                          : libebml v1.3.5 + libmatroska v1.4.5 / Lavf57.7.2

    Video
    ID                                       : 1
    Format                                   : AVC
    Format/Info                              : Advanced Video Codec
    Format profile                           : [email protected]
    Format settings                          : CABAC / 4 Ref Frames
    Format settings, CABAC                   : Yes
    Format settings, RefFrames               : 4 frames
    Codec ID                                 : V_MPEG4/ISO/AVC
    Duration                                 : 1 h 56 min
    Bit rate                                 : 11.6 Mb/s
    Width                                    : 1 920 pixels
    Height                                   : 1 080 pixels
    Display aspect ratio                     : 16:9
    Frame rate mode                          : Constant
    Frame rate                               : 23.976 (24000/1001) FPS
    Color space                              : YUV
    Chroma subsampling                       : 4:2:0
    Bit depth                                : 8 bits
    Scan type                                : Progressive
    Bits/(Pixel*Frame)                       : 0.234
    Stream size                              : 9.47 GiB (83%)
    Title                                    : 300 (2006) Full 1080p Latino
    Writing library                          : x264 core 148 r2708 86b7198
    Encoding settings                        : cabac=1 / ref=4 / deblock=1:0:0 / analyse=0x3:0x133 / me=esa / subme=10 / psy=1 / psy_rd=1.00:0.00 / mixed_ref=1 / me_range=24 / chroma_me=1 / trellis=2 / 8x8dct=1 / cqm=0 / deadzone=21,11 / fast_pskip=1 / chroma_qp_offset=-2 / threads=34 / lookahead_threads=5 / sliced_threads=0 / nr=0 / decimate=1 / interlaced=0 / bluray_compat=0 / constrained_intra=0 / bframes=8 / b_pyramid=2 / b_adapt=2 / b_bias=0 / direct=3 / weightb=1 / open_gop=0 / weightp=2 / keyint=240 / keyint_min=24 / scenecut=40 / intra_refresh=0 / rc_lookahead=60 / rc=crf / mbtree=1 / crf=20.0 / qcomp=0.60 / qpmin=0 / qpmax=69 / qpstep=4 / vbv_maxrate=62500 / vbv_bufsize=78125 / crf_max=0.0 / nal_hrd=none / filler=0 / ip_ratio=1.40 / aq=1:1.00
    Language                                 : English
    Default                                  : Yes
    Forced                                   : No
    Color range                              : Limited
    Color primaries                          : BT.709
    Transfer characteristics                 : BT.709
    Matrix coefficients                      : BT.709
    Statistics Tags Issue                    : mkvmerge v15.0.0 ('Duel with the Devil') 64-bit 2017-11-12 04:40:26 / mkvmerge v15.0.0 ('Duel with the Devil') 64-bit 2017-11-12 04:40:26 / UTC 2017-11-10T14:31:57Z
    FromStats_BitRate                        : 11894778
    FromStats_Duration                       : 01:56:32.528000000
    FromStats_FrameCount                     : 167653
    FromStats_StreamSize                     : 10396821185

    Audio #1
    ID                                       : 2
    Format                                   : AC-3
    Format/Info                              : Audio Coding 3
    Format settings, Endianness              : Big
    Codec ID                                 : A_AC3
    Duration                                 : 1 h 56 min
    Bit rate mode                            : Constant
    Bit rate                                 : 640 kb/s
    Channel(s)                               : 6 channels
    Channel positions                        : Front: L C R, Side: L R, LFE
    Sampling rate                            : 48.0 kHz
    Frame rate                               : 31.250 FPS (1536 SPF)
    Bit depth                                : 16 bits
    Compression mode                         : Lossy
    Stream size                              : 534 MiB (5%)
    Title                                    : Latino-AC3
    Language                                 : Spanish
    Service kind                             : Complete Main
    Default                                  : Yes
    Forced                                   : No
    Statistics Tags Issue                    : mkvmerge v15.0.0 ('Duel with the Devil') 64-bit 2017-11-12 04:40:26 / mkvmerge v15.0.0 ('Duel with the Devil') 64-bit 2017-11-12 04:40:26 / UTC 2017-11-10T14:31:57Z
    FromStats_BitRate                        : 640000
    FromStats_Duration                       : 01:56:32.544000000
    FromStats_FrameCount                     : 218517
    FromStats_StreamSize                     : 559403520

    Audio #2
    ID                                       : 3
    Format                                   : DTS
    Format/Info                              : Digital Theater Systems
    Mode                                     : 16
    Format settings, Endianness              : Big
    Codec ID                                 : A_DTS
    Duration                                 : 1 h 56 min
    Bit rate mode                            : Constant
    Bit rate                                 : 1 509 kb/s
    Channel(s)                               : 6 channels
    Channel positions                        : Front: L C R, Side: L R, LFE
    Sampling rate                            : 48.0 kHz
    Frame rate                               : 93.750 FPS (512 SPF)
    Bit depth                                : 24 bits
    Compression mode                         : Lossy
    Stream size                              : 1.23 GiB (11%)
    Title                                    : Ingles-AC3
    Language                                 : English
    Default                                  : No
    Forced                                   : No
    Statistics Tags Issue                    : mkvmerge v15.0.0 ('Duel with the Devil') 64-bit 2017-11-12 04:40:26 / mkvmerge v15.0.0 ('Duel with the Devil') 64-bit 2017-11-12 04:40:26 / UTC 2017-11-10T14:31:57Z
    FromStats_BitRate                        : 1509000
    FromStats_Duration                       : 01:56:38.816000000
    FromStats_FrameCount                     : 656139
    FromStats_StreamSize                     : 1320151668

    Text #1
    ID                                       : 4
    Format                                   : PGS
    Muxing mode                              : zlib
    Codec ID                                 : S_HDMV/PGS
    Codec ID/Info                            : Picture based subtitle format used on BDs/HD-DVDs
    Language                                 : English
    Default                                  : No
    Forced                                   : No
    Statistics Tags Issue                    : mkvmerge v15.0.0 ('Duel with the Devil') 64-bit 2017-11-12 04:40:26 / mkvmerge v15.0.0 ('Duel with the Devil') 64-bit 2017-11-12 04:40:26 / UTC 2017-11-10T14:31:57Z
    FromStats_BitRate                        : 21846
    FromStats_Duration                       : 01:55:20.831000000
    FromStats_FrameCount                     : 1914
    FromStats_StreamSize                     : 18899777

    Text #2
    ID                                       : 5
    Format                                   : PGS
    Muxing mode                              : zlib
    Codec ID                                 : S_HDMV/PGS
    Codec ID/Info                            : Picture based subtitle format used on BDs/HD-DVDs
    Language                                 : Spanish
    Default                                  : No
    Forced                                   : No
    Statistics Tags Issue                    : mkvmerge v15.0.0 ('Duel with the Devil') 64-bit 2017-11-12 04:40:26 / mkvmerge v15.0.0 ('Duel with the Devil') 64-bit 2017-11-12 04:40:26 / UTC 2017-11-10T14:31:57Z
    FromStats_BitRate                        : 23268
    FromStats_Duration                       : 01:55:20.831000000
    FromStats_FrameCount                     : 1930
    FromStats_StreamSize                     : 20129560

    Menu
    00:00:00.000                             : :Spartan Education
    00:05:16.983                             : :Messenger From Persia
    00:10:23.289                             : :Sparta's Reply
    00:13:16.796                             : :The Ephors
    00:16:52.178                             : :The Oracle
    00:19:44.350                             : :What Should a Free Man Do?
    00:22:28.347                             : :With or on Your Shield
    00:27:03.622                             : :More Soldiers Than You
    00:29:16.255                             : :Hunters of Men's Souls
    00:33:17.829                             : :Glorious Rain
    00:35:06.771                             : :Fraction of the Monster
    00:37:49.434                             : :Wall of the Dead
    00:40:46.277                             : :Ephialtes' Request
    00:44:10.314                             : :Hot Gates Battle
    00:49:17.288                             : :Today No Spartan Dies
    00:52:46.330                             : :Make Theron Your Ally
    00:55:33.664                             : :Meeting Xerxes
    01:01:40.864                             : :Immortals Put to the Test
    01:05:20.750                             : :Uber Immortal's Fall
    01:08:42.952                             : :Numbers Count for Nothing
    01:12:43.192                             : :Blood-Drunk
    01:15:50.379                             : :Betrayer's Bargain
    01:18:38.380                             : :Queen's Bargain
    01:22:20.936                             : :Prepare for Glory
    01:26:43.532                             : :Tell Them Our Story
    01:29:11.513                             : :Trickster in True Form
    01:33:59.217                             : :Victory in Surrender
    01:38:54.595                             : :Fallen Heroes
    01:43:26.200                             : :Go Tell the Spartans
    01:49:03.537                             : :End Credits

  • Peso: 11.5 GiB

Sinopsis

Adaptación del cómic de Frank Miller (autor del cómic de “Sin City”) sobre la famosa batalla de las Termópilas, ocurrida en el año 480 A.C. durante las Guerras Médicas, en las que Jerjes, emperador de Persia, trataba de conquistar Grecia. Atenas consiguió convencer a Leónidas I, rey de Esparta, para que participase en la guerra contra los persas. Así, el rey Leonidas (Gerard Butler) y 300 espartanos se enfrentaron a un inmensamente superior ejército persa.

Ficha técnica

Video trailer de la película

Enlaces de descarga

Descargar 300 (2006) Full 1080p Latino
Descargar

dpeliculas

Aportes de DPeliculasHDmega la pass es:dpeliculashdmega.org Aportes de CinemaniaHD la pass es:cinemaniahdd.com

Películas relacionadas

  • Toy Story 3 (2010) Full 1080p Latino

    2010
    Toy Story 3 (2010) Full 1080p Latino

    0.0 1 h 43 min 2010

    Sabiendo que su dueño Andy, que ya no es un niño, se prepara para ir a la universidad, el vaquero Woody,...

    Director: Mark Sanford

    Género: Animación

    Actores: Whoopi Goldberg

  • Toy Story (1995) Full 1080p Latino

    1995
    Toy Story (1995) Full 1080p Latino

    0.0 1 h 21 min 1995

    Los juguetes de Andy, un niño de 6 años, temen que haya llegado su hora y que un nuevo regalo de cumpleaños...

    Director: Roman Figun

    Género: Animación

    Actores: Wallace Shawn

  • Avatar (2009) EXTENDED Full 1080p Latino

    2009
    Avatar (2009) EXTENDED Full 1080p Latino

    0.0 2 h 58 min 2009

    Jake Sully, un ex-marine confinado a una silla de ruedas, es reclutado para viajar al planeta Pandora,...

    Director: James Cameron

    Género: Acción

    Actores: Zoe Saldana

Comentarios 3
  • iDeztrukxion - 13 noviembre, 2017

    es la que estaba buscando!! gracias crack!!

  • criss - 12 noviembre, 2017

    muchas gracias, espero también suban la dos. Saludos

    • Dpelis2 pelis2

      Autor
      - 12 noviembre, 2017

      claro que si…