3 Idiotas (2017) 1080p Latino

1.863 vistas
1 estrella2 estrellas3 estrellas4 estrellas5 estrellas (Ninguna valoración todavía)
Cargando…

Información de 3 Idiotas (2017) 1080p Latino

Datos de la película

  • Calidad: 1080p
  • Audio: Español Latino AC3 5.1 BLURAY
  • Subtitulos: No
  • Resolución: 1920x802p
  • Formato: MKV
  • Codec: H.264
  • Encoder: Dpelis
  • Mediainfo: Ver Ver
  • \3.idiotas.2017.1080.Latino.mkv
    Format                      : Matroska
    Format version              : Version 4 / Version 2
    File size                   : 2.84 GiB
    Duration                    : 1 h 45 min
    Overall bit rate            : 3 838 kb/s
    Movie name                  : DPeliculasHDMega.ORG
    Encoded date                : UTC 2017-08-05 19:42:24 / UTC 2017-08-05T15:40:46Z
    Writing application         : mkvmerge v10.0.0 ('To Drown In You') 64bit
    Writing library             : libebml v1.3.4 + libmatroska v1.4.5 / Lavf57.7.2

    Video
    ID                          : 1
    Format                      : AVC
    Format/Info                 : Advanced Video Codec
    Format profile              : [email protected]
    Format settings, CABAC      : Yes
    Format settings, ReFrames   : 4 frames
    Codec ID                    : V_MPEG4/ISO/AVC
    Duration                    : 1 h 45 min
    Bit rate                    : 3 500 kb/s
    Width                       : 1 920 pixels
    Height                      : 802 pixels
    Display aspect ratio        : 2.40:1
    Frame rate mode             : Constant
    Frame rate                  : 23.976 (24000/1001) FPS
    Color space                 : YUV
    Chroma subsampling          : 4:2:0
    Bit depth                   : 8 bits
    Scan type                   : Progressive
    Bits/(Pixel*Frame)          : 0.095
    Stream size                 : 2.50 GiB (88%)
    Writing library             : x264 core 148 r2708 86b7198
    Encoding settings           : cabac=1 / ref=3 / deblock=1:0:0 / analyse=0x3:0x113 / me=hex / subme=7 / psy=1 / psy_rd=1.00:0.00 / mixed_ref=1 / me_range=16 / chroma_me=1 / trellis=1 / 8x8dct=1 / cqm=0 / deadzone=21,11 / fast_pskip=1 / chroma_qp_offset=-2 / threads=12 / lookahead_threads=2 / sliced_threads=0 / nr=0 / decimate=1 / interlaced=0 / bluray_compat=0 / constrained_intra=0 / bframes=3 / b_pyramid=2 / b_adapt=1 / b_bias=0 / direct=1 / weightb=1 / open_gop=0 / weightp=2 / keyint=240 / keyint_min=24 / scenecut=40 / intra_refresh=0 / rc_lookahead=40 / rc=abr / mbtree=1 / bitrate=3500 / ratetol=1.0 / qcomp=0.60 / qpmin=0 / qpmax=69 / qpstep=4 / vbv_maxrate=62500 / vbv_bufsize=78125 / nal_hrd=none / filler=0 / ip_ratio=1.40 / aq=1:1.00
    Default                     : Yes
    Forced                      : No
    Color range                 : Limited
    Color primaries             : BT.709
    Transfer characteristics    : BT.709
    Matrix coefficients         : BT.709
    Statistics Tags Issue       : mkvmerge v10.0.0 ('To Drown In You') 64bit 2017-08-05 19:42:24 / mkvmerge v10.0.0 ('To Drown In You') 64bit 2017-08-05 19:42:24 / UTC 2017-08-05T15:40:46Z
    FromStats_BitRate           : 3451727
    FromStats_Duration          : 01:45:46.340000000
    FromStats_FrameCount        : 152160
    FromStats_StreamSize        : 2738229311

    Audio
    ID                          : 2
    Format                      : AC-3
    Format/Info                 : Audio Coding 3
    Format settings, Endianness : Big
    Codec ID                    : A_AC3
    Duration                    : 1 h 45 min
    Bit rate mode               : Constant
    Bit rate                    : 384 kb/s
    Channel(s)                  : 6 channels
    Channel positions           : Front: L C R, Side: L R, LFE
    Sampling rate               : 48.0 kHz
    Frame rate                  : 31.250 FPS (1536 spf)
    Bit depth                   : 16 bits
    Compression mode            : Lossy
    Delay relative to video     : -5 ms
    Stream size                 : 291 MiB (10%)
    Title                       : Surround
    Language                    : Spanish
    Service kind                : Complete Main
    Default                     : Yes
    Forced                      : No
    Statistics Tags Issue       : mkvmerge v10.0.0 ('To Drown In You') 64bit 2017-08-05 19:42:24 / mkvmerge v10.0.0 ('To Drown In You') 64bit 2017-08-05 19:42:24 / UTC 2017-08-05T15:40:46Z
    FromStats_BitRate           : 384000
    FromStats_Duration          : 01:45:46.368000000
    FromStats_FrameCount        : 198324
    FromStats_StreamSize        : 304625664

    Text
    ID                          : 3
    Format                      : UTF-8
    Codec ID                    : S_TEXT/UTF8
    Codec ID/Info               : UTF-8 Plain Text
    Language                    : Spanish
    Default                     : Yes
    Forced                      : No
    Statistics Tags Issue       : mkvmerge v10.0.0 ('To Drown In You') 64bit 2017-08-05 19:42:24 / mkvmerge v10.0.0 ('To Drown In You') 64bit 2017-08-05 19:42:24 / UTC 2017-08-05T15:40:46Z
    FromStats_BitRate           : 28
    FromStats_Duration          : 00:00:20.100000000
    FromStats_FrameCount        : 1
    FromStats_StreamSize        : 71

    Menu
    00:00:00.000                : :Chapter 1
    00:07:15.018                : :Chapter 2
    00:17:22.583                : :Chapter 3
    00:26:52.402                : :Chapter 4
    00:36:05.664                : :Chapter 5
    00:44:17.530                : :Chapter 6
    00:52:12.671                : :Chapter 7
    01:01:44.492                : :Chapter 8
    01:11:30.453               : :Chapter 9
    01:19:20.589                : :Chapter 10
    01:26:39.152                : :Chapter 11
    01:36:49.220                : :Chapter 1

  • Peso: 2.84 GB

Sinopsis

Descargar 3 Idiotas hd latino, Una pelucula  de comedia  para toda la familia. Un grupo de amigos se embarcan en una aventura para encontrar a un compañero de la Universidad, quien desapareció el día de la graduación sin dejar rastro. Adaptación mexicana de “3 Idiots”, película dirigida por Rajkumar Hirani y que rompió récords en taquilla dentro y fuera de la India.

Ficha técnica

  • Titulo original: 3 Idiotas
  • Fecha de lanzamiento: 02-04-2017 (Mexico)
  • Director: Carlos Bolado
  • Género: Comedia, Familia
  • Puntuación: 0.0 0 votos
  • Duración:
    1h 45m

Imágenes, Capturas de la película

Video trailer de la película

Enlaces de descarga

Descargar 3 Idiotas (2017) 1080p Latino
Descargar

dpeliculas

Aportes de DPeliculasHDmega la pass es:dpeliculashdmega.org Aportes de CinemaniaHD la pass es:cinemaniahdd.com
Guardado en : Comedia , Familia

PelícuDelas relacionadas

  • Atypical (2017) Temporada 1 WEBDL 1080p Latino

    2017
    Atypical (2017) Temporada 1 WEBDL 1080p Latino

    0.0 0h 33m 2017

    Descargar Serie de Netflix HD Latino, Atypical hd es una serie de Netflix con idioma Latino 5.1 La historia...

    Director: Robia Rashid

    Género: Comedia

    Actores: Jennifer Jason Leigh

  • Desnudo (2017) Webdl 1080p Latino

    2017
    Desnudo (2017) Webdl 1080p Latino

    0.0 1h 36m 2017

    Descargar Naked hd latino. Es una pelicula de Netflix, tambien conocida en latinoamerica como Desnudo...

    Director: Michael Tiddes

    Género: Comedia

    Actores: Regina Hall

  • Empeliculados (2017) Webdl 1080p Latino

    2017
    Empeliculados (2017) Webdl 1080p Latino

    0.0 1h 35m 2017

    Descargar Empeliculados hd latino, es una pelicula colombiana. Jorge, un director de cine soñador con...

    Director: Diego Fernando Bustamante

    Género: Comedia

    Actores: Paula Castaño

Comentarios 6
  • oscar - 06 Agosto, 2017

    Hola una pregunta, subirán los capítulos de dragon ball super en latino?

    • dpelis

      Administrador
      - 07 Agosto, 2017

      ya se estan publicando

  • JOrge - 06 Agosto, 2017

    RECOMIENDO FERVIENTEMENTE ver la versión original de 2009.

    • dpelis

      Administrador
      - 09 Agosto, 2017

      si mejor tratare de subir

  • Rodrigo - 06 Agosto, 2017

    Saldrá en versión gris???

    • dpelis

      Administrador
      - 06 Agosto, 2017

      no estimado