2:22 (2017) WEBDL 1080p Latino

1.088 vistas
1 estrella2 estrellas3 estrellas4 estrellas5 estrellas (Ninguna valoración todavía)
Cargando…

Información de 2:22 (2017) WEBDL 1080p Latino

Datos de la película

  • Calidad: WEBDL
  • Audio: Español Latino AC3 2.0 DVD - Ingles AC3 5.1 iTunes
  • Subtitulos: Español Latino SRT - Ingles SRT
  • Resolución: 1920x796p
  • Formato: MKV
  • Codec: H.264
  • Encoder: Dpelis
  • Mediainfo: Ver Ver
  • 2.22 (2017) WEBDL 1080p Latino.mkv
    Format                      : Matroska
    Format version              : Version 4 / Version 2
    File size                   : 3.54 GiB
    Duration                    : 1 h 38 min
    Overall bit rate            : 5 126 kb/s
    Movie name                  : DPeliculasHDMega.ORG
    Encoded date                : UTC 2017-09-08 19:20:57
    Writing application         : mkvmerge v10.0.0 ('To Drown In You') 64bit
    Writing library             : libebml v1.3.4 + libmatroska v1.4.5
    Cover                       : Yes
    Attachments                 : cover_land.jpg / small_cover.jpg / small_cover_land.jpg / cover.jpg

    Video
    ID                          : 1
    Format                      : AVC
    Format/Info                 : Advanced Video Codec
    Format profile              : [email protected]
    Format settings, CABAC      : Yes
    Format settings, ReFrames   : 5 frames
    Codec ID                    : V_MPEG4/ISO/AVC
    Duration                    : 1 h 38 min
    Bit rate                    : 4 548 kb/s
    Width                       : 1 920 pixels
    Height                      : 796 pixels
    Display aspect ratio        : 2.40:1
    Frame rate mode             : Constant
    Frame rate                  : 23.976 (23976/1000) FPS
    Color space                 : YUV
    Chroma subsampling          : 4:2:0
    Bit depth                   : 8 bits
    Scan type                   : Progressive
    Bits/(Pixel*Frame)          : 0.124
    Stream size                 : 3.14 GiB (89%)
    Language                    : English
    Default                     : Yes
    Forced                      : No
    Color range                 : Limited
    Color primaries             : BT.709
    Transfer characteristics    : BT.709
    Matrix coefficients         : BT.709

    Audio #1
    ID                          : 2
    Format                      : AC-3
    Format/Info                 : Audio Coding 3
    Format settings, Endianness : Big
    Codec ID                    : A_AC3
    Duration                    : 1 h 38 min
    Bit rate mode               : Constant
    Bit rate                    : 192 kb/s
    Channel(s)                  : 2 channels
    Channel positions           : Front: L R
    Sampling rate               : 48.0 kHz
    Frame rate                  : 31.250 FPS (1536 spf)
    Bit depth                   : 16 bits
    Compression mode            : Lossy
    Delay relative to video     : 6 s 958 ms
    Stream size                 : 136 MiB (4%)
    Language                    : Spanish
    Service kind                : Complete Main
    Default                     : Yes
    Forced                      : No

    Audio #2
    ID                          : 3
    Format                      : AC-3
    Format/Info                 : Audio Coding 3
    Format settings, Endianness : Big
    Codec ID                    : A_AC3
    Duration                    : 1 h 38 min
    Bit rate mode               : Constant
    Bit rate                    : 384 kb/s
    Channel(s)                  : 6 channels
    Channel positions           : Front: L C R, Side: L R, LFE
    Sampling rate               : 48.0 kHz
    Frame rate                  : 31.250 FPS (1536 spf)
    Bit depth                   : 16 bits
    Compression mode            : Lossy
    Delay relative to video     : -42 ms
    Stream size                 : 272 MiB (7%)
    Language                    : English
    Service kind                : Complete Main
    Default                     : No
    Forced                      : No

    Text #1
    ID                          : 4
    Format                      : UTF-8
    Codec ID                    : S_TEXT/UTF8
    Codec ID/Info               : UTF-8 Plain Text
    Duration                    : 1 h 31 min
    Bit rate                    : 44 b/s
    Count of elements           : 981
    Stream size                 : 29.8 KiB (0%)
    Language                    : English
    Default                     : Yes
    Forced                      : No

    Text #2
    ID                          : 5
    Format                      : UTF-8
    Codec ID                    : S_TEXT/UTF8
    Codec ID/Info               : UTF-8 Plain Text
    Duration                    : 1 h 32 min
    Bit rate                    : 45 b/s
    Count of elements           : 1025
    Stream size                 : 30.8 KiB (0%)
    Default                     : No
    Forced                      : No

    Menu
    00:00:00.000                : en:1
    00:06:14.457                : en:2
    00:11:51.669                : en:3
    00:17:33.969                : en:4
    00:23:36.039                : en:5
    00:29:00.822                : en:6
    00:33:37.890                : en:7
    00:40:18.999                : en:8
    00:45:21.426                : en:9
    00:51:59.365                : en:10
    00:58:27.961                : en:11
    01:02:26.741                : en:12
    01:11:45.841                : en:13
    01:14:55.655                : en:14
    01:22:18.848                : en:15
    01:25:23.699                : en:16

  • Peso: 3.54 GB

Sinopsis

Un controlador aéreo vive una vida desordenada después de que es casi responsable de una colisión entre dos aviones causada por una misteriosa luz a las 2:22 pm. Este evento lo lleva a conocer una mujer con la que todo parece indicar su vida está entrelazada desde hace mucho tiempo atrás.

Ficha técnica

  • Titulo original: 2:22
  • Fecha de lanzamiento: 29-06-2017
  • Director: Paul Currie
  • Género: Drama, Suspense
  • Puntuación: 0.0 0 votos
  • Duración:
    1h 39m

Imágenes, Capturas de la película

Video trailer de la película

Enlaces de descarga

Descargar 2:22 (2017) WEBDL 1080p Latino
Descargar

dpeliculas

Aportes de DPeliculasHDmega la pass es:dpeliculashdmega.org Aportes de CinemaniaHD la pass es:cinemaniahdd.com
Guardado en : Drama , Suspense

PelícuDelas relacionadas

Comentarios 2
  • Brian - 13 septiembre, 2017

    Hola, falta mucho para que la suban en caratla negra o plateada? para ver si aguanto un poco o la descargo ya a la pelicula

    • dpelis

      Administrador
      - 13 septiembre, 2017

      no se estimado, el bluray no trae latino,