Advertise here

127 horas (2010) Full 1080p Latino

540 vistas
1 estrella2 estrellas3 estrellas4 estrellas5 estrellas (1 votos, promedio: 5,00 de 5)
Cargando…

Información de 127 horas (2010) Full 1080p Latino

Datos de la película

  • Calidad: Full 1080p
  • Audio: Español Latino AC3 5.1 DVD - Ingles DTS 5.1 BLURAY
  • Subtitulos: Español Latino SRT
  • Resolución: 1920X1080
  • Formato: MKV
  • Codec: H.264
  • Encoder: Dpelis
  • Mediainfo: Clic para Mostrar Datos Ver
  • Format                                   : Matroska
    Format version                           : Version 4 / Version 2
    File size                                : 7.72 GiB
    Duration                                 : 1 h 33 min
    Overall bit rate                         : 11.8 Mb/s
    Movie name                               : dpeliculashdmega.org
    Encoded date                             : UTC 2017-11-12 04:00:59 / UTC 2017-11-11T08:07:29Z
    Writing application                      : mkvmerge v15.0.0 ('Duel with the Devil') 64-bit
    Writing library                          : libebml v1.3.5 + libmatroska v1.4.5 / Lavf57.7.2

    Video
    ID                                       : 1
    Format                                   : AVC
    Format/Info                              : Advanced Video Codec
    Format profile                           : [email protected]
    Format settings                          : CABAC / 4 Ref Frames
    Format settings, CABAC                   : Yes
    Format settings, RefFrames               : 4 frames
    Codec ID                                 : V_MPEG4/ISO/AVC
    Duration                                 : 1 h 33 min
    Bit rate                                 : 9 603 kb/s
    Width                                    : 1 920 pixels
    Height                                   : 1 080 pixels
    Display aspect ratio                     : 16:9
    Frame rate mode                          : Constant
    Frame rate                               : 23.976 (24000/1001) FPS
    Color space                              : YUV
    Chroma subsampling                       : 4:2:0
    Bit depth                                : 8 bits
    Scan type                                : Progressive
    Bits/(Pixel*Frame)                       : 0.193
    Stream size                              : 6.29 GiB (81%)
    Title                                    : 127 horas (2010) Full 1080p Latino
    Writing library                          : x264 core 148 r2708 86b7198
    Encoding settings                        : cabac=1 / ref=4 / deblock=1:0:0 / analyse=0x3:0x133 / me=esa / subme=10 / psy=1 / psy_rd=1.00:0.00 / mixed_ref=1 / me_range=24 / chroma_me=1 / trellis=2 / 8x8dct=1 / cqm=0 / deadzone=21,11 / fast_pskip=1 / chroma_qp_offset=-2 / threads=34 / lookahead_threads=5 / sliced_threads=0 / nr=0 / decimate=1 / interlaced=0 / bluray_compat=0 / constrained_intra=0 / bframes=8 / b_pyramid=2 / b_adapt=2 / b_bias=0 / direct=3 / weightb=1 / open_gop=0 / weightp=2 / keyint=240 / keyint_min=24 / scenecut=40 / intra_refresh=0 / rc_lookahead=60 / rc=crf / mbtree=1 / crf=20.0 / qcomp=0.60 / qpmin=0 / qpmax=69 / qpstep=4 / vbv_maxrate=62500 / vbv_bufsize=78125 / crf_max=0.0 / nal_hrd=none / filler=0 / ip_ratio=1.40 / aq=1:1.00
    Language                                 : English
    Default                                  : Yes
    Forced                                   : No
    Color range                              : Limited
    Color primaries                          : BT.709
    Transfer characteristics                 : BT.709
    Matrix coefficients                      : BT.709
    Statistics Tags Issue                    : mkvmerge v15.0.0 ('Duel with the Devil') 64-bit 2017-11-12 04:00:59 / mkvmerge v15.0.0 ('Duel with the Devil') 64-bit 2017-11-12 04:00:59 / UTC 2017-11-11T08:07:29Z
    FromStats_BitRate                        : 9837505
    FromStats_Duration                       : 01:33:41.616000000
    FromStats_FrameCount                     : 134784
    FromStats_StreamSize                     : 6912835021

    Audio #1
    ID                                       : 2
    Format                                   : AC-3
    Format/Info                              : Audio Coding 3
    Format settings, Endianness              : Big
    Codec ID                                 : A_AC3
    Duration                                 : 1 h 33 min
    Bit rate mode                            : Constant
    Bit rate                                 : 448 kb/s
    Channel(s)                               : 6 channels
    Channel positions                        : Front: L C R, Side: L R, LFE
    Sampling rate                            : 48.0 kHz
    Frame rate                               : 31.250 FPS (1536 SPF)
    Bit depth                                : 16 bits
    Compression mode                         : Lossy
    Stream size                              : 300 MiB (4%)
    Title                                    : Latino-AC3
    Language                                 : Spanish
    Service kind                             : Complete Main
    Default                                  : Yes
    Forced                                   : No
    Statistics Tags Issue                    : mkvmerge v15.0.0 ('Duel with the Devil') 64-bit 2017-11-12 04:00:59 / mkvmerge v15.0.0 ('Duel with the Devil') 64-bit 2017-11-12 04:00:59 / UTC 2017-11-11T08:07:29Z
    FromStats_BitRate                        : 448000
    FromStats_Duration                       : 01:33:43.008000000
    FromStats_FrameCount                     : 175719
    FromStats_StreamSize                     : 314888448

    Audio #2
    ID                                       : 3
    Format                                   : DTS
    Format/Info                              : Digital Theater Systems
    Mode                                     : 16
    Format settings, Endianness              : Big
    Codec ID                                 : A_DTS
    Duration                                 : 1 h 33 min
    Bit rate mode                            : Constant
    Bit rate                                 : 1 509 kb/s
    Channel(s)                               : 6 channels
    Channel positions                        : Front: L C R, Side: L R, LFE
    Sampling rate                            : 48.0 kHz
    Frame rate                               : 93.750 FPS (512 SPF)
    Bit depth                                : 24 bits
    Compression mode                         : Lossy
    Stream size                              : 1 012 MiB (13%)
    Title                                    : Ingles-DTS
    Language                                 : English
    Default                                  : No
    Forced                                   : No
    Statistics Tags Issue                    : mkvmerge v15.0.0 ('Duel with the Devil') 64-bit 2017-11-12 04:00:59 / mkvmerge v15.0.0 ('Duel with the Devil') 64-bit 2017-11-12 04:00:59 / UTC 2017-11-11T08:07:29Z
    FromStats_BitRate                        : 1508999
    FromStats_Duration                       : 01:33:41.622000000
    FromStats_FrameCount                     : 527027
    FromStats_StreamSize                     : 1060378324

    Text
    ID                                       : 4
    Format                                   : UTF-8
    Codec ID                                 : S_TEXT/UTF8
    Codec ID/Info                            : UTF-8 Plain Text
    Title                                    : SRT
    Language                                 : Spanish
    Default                                  : No
    Forced                                   : No
    Statistics Tags Issue                    : mkvmerge v15.0.0 ('Duel with the Devil') 64-bit 2017-11-12 04:00:59 / mkvmerge v15.0.0 ('Duel with the Devil') 64-bit 2017-11-12 04:00:59 / UTC 2017-11-11T08:07:29Z
    FromStats_BitRate                        : 21
    FromStats_Duration                       : 01:27:26.798000000
    FromStats_FrameCount                     : 480
    FromStats_StreamSize                     : 14364

    Menu
    00:00:00.000                             : :00:00:00.000
    00:05:08.141                             : :00:05:08.141
    00:07:55.976                             : :00:07:55.975
    00:10:46.729                             : :00:10:46.729
    00:14:42.924                             : :00:14:42.924
    00:20:43.534                             : :00:20:43.534
    00:25:02.209                             : :00:25:02.209
    00:29:34.898                             : :00:29:34.898
    00:32:16.435                             : :00:32:16.434
    00:35:46.728                             : :00:35:46.728
    00:40:12.368                             : :00:40:12.368
    00:45:48.704                             : :00:45:48.704
    00:48:48.968                             : :00:48:48.968
    00:52:01.744                             : :00:52:01.744
    00:56:05.988                             : :00:56:05.988
    01:00:57.320                             : :01:00:57.320
    01:03:19.629                             : :01:03:19.629
    01:06:43.291                             : :01:06:43.208
    01:10:24.262                             : :01:10:24.262
    01:12:31.222                             : :01:12:31.222
    01:15:33.237                             : :01:15:33.237
    01:19:51.787                             : :01:19:51.704
    01:23:28.545                             : :01:23:28.545
    01:28:07.991                             : :01:28:07.908

  • Peso: 7.72 GiB

Sinopsis

Basada en la historia real de Aron Ralston, un intrépido montañero norteamericano tristemente famoso porque en mayo de 2003, durante una escalada, en Utah, sufrió una caída. Tras varios días inmovilizado e incapaz de encontrar una solución, tuvo que tomar una dramática decisión.

Ficha técnica

Video trailer de la película

Enlaces de descarga

Descargar 127 horas (2010) Full 1080p Latino
Descargar

dpeliculas

Aportes de DPeliculasHDmega la pass es:dpeliculashdmega.org Aportes de CinemaniaHD la pass es:cinemaniahdd.com

Películas relacionadas

  • Toy Story 3 (2010) Full 1080p Latino

    2010
    Toy Story 3 (2010) Full 1080p Latino

    0.0 1 h 43 min 2010

    Sabiendo que su dueño Andy, que ya no es un niño, se prepara para ir a la universidad, el vaquero Woody,...

    Director: Mark Sanford

    Género: Animación

    Actores: Whoopi Goldberg

  • Toy Story (1995) Full 1080p Latino

    1995
    Toy Story (1995) Full 1080p Latino

    0.0 1 h 21 min 1995

    Los juguetes de Andy, un niño de 6 años, temen que haya llegado su hora y que un nuevo regalo de cumpleaños...

    Director: Roman Figun

    Género: Animación

    Actores: Wallace Shawn

  • Avatar (2009) EXTENDED Full 1080p Latino

    2009
    Avatar (2009) EXTENDED Full 1080p Latino

    0.0 2 h 58 min 2009

    Jake Sully, un ex-marine confinado a una silla de ruedas, es reclutado para viajar al planeta Pandora,...

    Director: James Cameron

    Género: Acción

    Actores: Zoe Saldana

Comentarios 1
  • rodry - 12 noviembre, 2017

    son los mejores esta es mi pelicula favorita ahora la tendre en calidad full gracias sigan subiendo sagas completas en tapas gris